梅雪夜
Qrispy Joybox feat.mao

ADVANCED

Level: 7
BPM: 167
Notes: 465

1
口口口口 |----|
口口口口 |----|
口口口口 |----|
口口口口 |----|
2
口口口口 |①-②-|
①口口② |----|
③④口口 |----|
口口口口 |--③④|
3
②口口⑤ |①-②-|
口⑥口③ |③-④-|
口口①口 |⑤-⑥-|
④口口⑦ |⑦---|
4
口口口口 |①-②-|
①口口② |----|
③④口口 |----|
口口口口 |--③④|
5
②⑥⑦口 |①-②-|
口口口③ |③-④-|
口口①⑤ |⑤-⑥-|
④口口口 |⑦---|
6
口口口口 |①-②-|
①口口② |----|
③④口口 |----|
口口口口 |--③④|
7
②④口口 |①-②-|
口口口③ |③-④-|
口口①口
口口口口

口口口口
口⑥口口
口口⑦⑤ |⑤-⑥-|
口口口口 |⑦---|
8
④口口④ |①---|
③口口③ |②---|
②口口② |③---|
①口口① |④---|
9
口口口口 |①---|
口③③口 |②---|
口②②口 |③---|
口①①口 |----|
10
①口口⑤ |①-②-|
⑥口口② |③-④-|
③口口⑦ |⑤-⑥-|
⑧口口④ |⑦-⑧-|
11
口①口口 |①-②-|
口⑦②口 |③-④-|
口③⑥口 |⑤---|
口⑤④口 |⑥-⑦-|
12
④口口① |①---|
口口口⑤ |②-③-|
⑥口口② |④-⑤-|
③口口⑦ |⑥-⑦-|
13
口口①口 |①-②-|
口②口口 |③-④-|
口口③口 |⑤---|
口④⑤口 |----|
14
①口口⑤ |①-②-|
⑥口口② |③-④-|
③口口⑦ |⑤-⑥-|
⑧口口④ |⑦-⑧-|
15
⑥①口⑥ |①-②-|
口口②口 |③-④-|
口③口口 |⑤---|
口⑤④口 |⑥---|
16
④口口④ |①---|
③口口③ |②---|
②口口② |③---|
①口口① |④---|
17
口①①口 |①---|
口②②口 |②---|
口③③口 |③---|
口口口口 |----|
18
①口口⑤ |①-②-|
⑥口口② |③-④-|
③口口⑦ |⑤-⑥-|
口口口④ |⑦---|
19
口①口口 |①-②-|
口口②口 |③-④-|
口③口口
口口④口

口⑥⑥口
口口口口
口口口口 |⑤---|
口⑤口口 |⑥---|
20
⑤口口① |①-②-|
②口口⑥ |③-④-|
⑦口口③ |⑤-⑥-|
④口口⑧ |⑦-⑧-|
21
口口①口 |①-②-|
口②⑤口 |③-④-|
口口③口 |⑤---|
口④口口 |----|
22
①口口⑤ |①-②-|
⑥口口② |③-④-|
③口口⑦ |⑤-⑥-|
⑧口口④ |⑦-⑧-|
23
口①口口 |①-②-|
口口②口 |③-④-|
口③口口
口口④口

口⑥⑦口
口口口口
口口口口 |⑤---|
口⑤口口 |⑥-⑦-|
24
④口口④ |①---|
③口口③ |②---|
②口口② |③---|
①口口① |④---|
25
口①①口 |①---|
口②②口 |②---|
口③③口 |③---|
口口口口 |----|
26
①⑦口口 |--①-|
口口⑥② |②-③-|
③⑤口口 |④-⑤-|
口口④口 |⑥-⑦-|
27
口口口口 |①-②-|
②口口口 |③-④-|
④口⑤③ |⑤-⑥-|
口⑥⑦① |⑦---|
28
口口⑦① |--①-|
②⑥口口 |②-③-|
口口⑤③ |④-⑤-|
口④口口 |⑥-⑦-|
29
口⑤口④ |①-②-|
③口口口 |③-④-|
口口口② |⑤---|
①口口口 |----|
30
②⑧①口 |①-②-|
口口⑦③ |③-④-|
④⑥口口 |⑤-⑥-|
口口⑤口 |⑦-⑧-|
31
口口口口 |①-②-|
②口口口 |③-④-|
④口⑤③ |⑤-⑥-|
口⑥⑦① |⑦---|
32
④口口④ |①---|
③口口③ |②---|
②口口② |③---|
①口口① |④---|
33
③口口④ |①---|
③口口④ |②---|
口②②口 |③---|
口①①口 |④---|
34
口①①口 |①---|
口②口口 |----|
口口③口 |②-③-|
口④⑤口 |④-⑤-|
35
口口口口 |①---|
③口口③ |----|
②①口② |②---|
口口口口 |③---|
36
④②①③ |①---|
口口口口 |②---|
口口口口 |③---|
③①②④ |④---|
37
②口口③ |①---|
②①①③ |----|
口口口口 |②---|
口口口口 |③---|
38
口①①口 |①---|
口③②口 |----|
口②③口 |②---|
口口口口 |③---|
39
②④③① |①---|
口口口口 |②---|
口口口口 |③---|
①③④② |④---|
40
④口口④ |①-②-|
⑤①口⑤ |③---|
口③②口 |④---|
口口口口 |⑤---|
41
口口口口 |①---|
口口口口 |----|
①口口① |----|
口口口口 |----|
42
①①③③ |----|
口口口口 |①-②-|
口口口口 |----|
④④②② |③-④-|
43
口口口口 |----|
①①③③ |①-②-|
④④②② |----|
口口口口 |③-④-|
44
④③②① |①---|
口口口口 |②---|
口口口口 |③---|
口口口口 |④---|
45
口口口口 |①---|
口口口口 |②---|
口口口口 |③---|
①②③④ |④---|
46
③③①① |----|
口口口口 |①-②-|
口口口口 |----|
②②④④ |③-④-|
47
口口口口 |----|
③③①① |①-②-|
②②④④ |----|
口口口口 |③-④-|
48
①②③④ |①---|
口口口口 |②---|
口口口口 |③---|
口口口口 |④---|
49
②口口③ |①---|
②①①③ |----|
口①①口 |②---|
口口口口 |③---|
50
口①①口 |①---|
口②口口 |----|
口口③口 |②-③-|
口④⑤口 |④-⑤-|
51
口口口口 |①---|
③口口③ |----|
②①口② |②---|
口口口口 |③---|
52
④②①③ |①---|
口口口口 |②---|
口口口口 |③---|
③①②④ |④---|
53
②口口③ |①---|
②①①③ |----|
口口口口 |②---|
口口口口 |③---|
54
口①①口 |①---|
口③②口 |----|
口②③口 |②---|
口口口口 |③---|
55
②④③① |①---|
口口口口 |②---|
口口口口 |③---|
①③④② |④---|
56
③口口③ |①---|
④①①④ |②---|
口②②口 |③---|
口口口口 |④---|
57
口口口口 |①---|
口③②口 |②---|
①④④① |③---|
口②③口 |④---|
58
②口口④ |①---|
口②④口 |②-③-|
⑤口口③ |----|
①⑤③① |④-⑤-|
59
口口口口 |----|
①口口③ |①-②-|
④①③② |----|
口④②口 |③-④-|
60
口口口口 |①---|
口①①口 |----|
口口口口 |----|
口口口口 |----|
61
口①①口 |①---|
口②②口 |②---|
③口口③ |③---|
④口口④ |④---|
62
③口口① |----|
口③①口 |①-②-|
②口口④ |----|
口②④口 |③-④-|
63
口口口口 |----|
③口口① |①-②-|
②③①④ |----|
口②④口 |③-④-|
64
口口口口 |①---|
口①①口 |----|
口口口口 |----|
口口口口 |----|
65
①口口① |①---|
口口口口 |----|
口①①口 |----|
口口口口 |----|
66
口口口口 |----|
口口口口 |----|
口口口口 |----|
口口口口 |----|
67
口口口口 |----|
口口口口 |----|
口口口口 |----|
口口口口 |----|
68
①②口口 |①-②-|
口口④③ |③-④-|
⑤⑥口口 |⑤-⑥-|
口口⑧⑦ |⑦-⑧-|
69
口口②① |①-②-|
③④口口 |③-④-|
口口⑥⑤ |⑤-⑥-|
⑦⑧口口 |⑦-⑧-|
70
①口口① |①-②-|
②口口② |----|
口口口口 |----|
口口口口 |----|
71
①②口口 |①-②-|
口口④③ |③-④-|
⑤⑥口口 |⑤-⑥-|
口口⑧⑦ |⑦-⑧-|
72
口口②① |①-②-|
③④口口 |③-④-|
口口⑥⑤ |⑤-⑥-|
⑦⑧口口 |⑦-⑧-|
73
①②口口 |①-②-|
口口④③ |③-④-|
⑤⑥口口 |⑤-⑥-|
口口⑧⑦ |⑦-⑧-|


不確定度: 0

最終更新:2014年02月17日 17:49