Proof of the existence
猫叉Master+
ADVANCED
Level: 7
BPM: 170
Notes: 499
1
口口口口 |----|
口口口口 |----|
口口口口 |----|
口口口口 |----|
2
口口口口 |①---|
口口口口 |----|
口口口口 |----|
口①①口 |----|
3
口口口口 |----|
口口口口 |----|
口口口口 |----|
口口口口 |----|
4
口口口口 |--①-|
口口口口 |----|
口①①口 |----|
口口口口 |----|
5
口口口① |----|
口口②口 |----|
口口口口 |--①-|
口口口口 |-②--|
6
口口口口 |①---|
口口口口 |----|
口①口口 |----|
口口口口 |----|
7
①口口口 |①---|
口口口口 |----|
口口口口 |----|
口口口口 |----|
8
口口口口 |----|
口①口口 |----|
口口②口 |--①-|
口口口口 |-②--|
9
口口口口 |①---|
口口口口 |----|
口口口口 |----|
②口口① |②---|
10
②口口口 |①-②-|
③口口口 |--③-|
④口①① |--④-|
⑤口口口 |--⑤-|
11
①口口口 |--①-|
②口口口 |--②-|
③口口口 |--③-|
④口口口 |--④-|
12
②口口口 |①-②-|
③口①① |--③-|
④口口口 |--④-|
⑤口口口 |--⑤-|
13
①口口口 |--①-|
②口口口 |--②-|
③口口口 |--③-|
④口口口 |--④-|
14
②口①① |①-②-|
③口口口 |--③-|
④口口口 |--④-|
⑤口口口 |--⑤-|
15
②口口口 |①-②-|
③口①① |--③-|
④口口口 |--④-|
⑤口口口 |--⑤-|
16
②口口口 |①-②-|
③口口口 |--③-|
④口①① |--④-|
⑤口口口 |--⑤-|
17
口口口口 |①---|
口口口口 |----|
口口口口 |----|
口①①口 |----|
18
口⑦②口 |①-②-|
⑤口口④ |③-④-|
口①口⑧ |⑤-⑥-|
③口⑥口 |⑦-⑧-|
19
⑦口口口 |①-②-|
③口②⑥ |③-④-|
口①⑧口 |⑤-⑥-|
口⑤口④ |⑦-⑧-|
20
口③口② |①-②-|
口⑦⑥口 |③-④-|
口①口④ |⑤-⑥-|
⑤口口⑧ |⑦-⑧-|
21
口口⑥口 |①-②-|
⑦口口② |③-④-|
⑤③⑧口 |⑤-⑥-|
口①④口 |⑦-⑧-|
22
口③口⑥ |①-②-|
口口④② |③-④-|
⑦⑤口口 |⑤-⑥-|
①口口⑧ |⑦-⑧-|
23
口⑦⑥口 |①-②-|
③口口⑧ |③-④-|
口口④② |⑤-⑥-|
⑤①口口 |⑦-⑧-|
24
①口口④ |①-②-|
口口⑧口 |③-④-|
⑤③口口 |⑤-⑥-|
⑦口⑥② |⑦-⑧-|
25
⑤口口口 |①-②-|
①⑥⑥④ |③-④-|
口口口口 |⑤-⑥-|
口③口② |----|
26
口①①② |①---|
③口口④ |----|
口口②口 |--②-|
口③④口 |③-④-|
27
①口口口 |----|
⑤④③② |----|
口口口口 |--①-|
口口口口 |②③④⑤--|
28
①口口口 |----|
③口口② |----|
口①口口 |--①-|
口③②口 |②-③-|
29
①口口口 |----|
口口②口 |--①-|
口口口口 |--②-|
③④⑤⑥ |③④⑤⑥--|
30
口口口② |①---|
③口口④ |----|
①口②口 |--②-|
口③④口 |③-④-|
31
口口口⑦ |----|
⑥口口⑤ |---①②③|
④③②① |④-⑤-|
口口口口 |⑥-⑦-|
32
①口口口 |①---|
口②口口 |----|
口口口口 |--②-|
④口③口 |③-④-|
33
⑤口口口 |---①②③|
⑩⑨⑧⑦ |④-⑤-|
①②③④ |--⑥-|
口⑥口口 |⑦⑧⑨⑩--|
34
口①①② |①---|
③口口④ |----|
口口②口 |--②-|
口③④口 |③-④-|
35
①口口口 |----|
⑤④③② |----|
口口口口 |--①-|
口口口口 |②③④⑤--|
36
①口口口 |----|
③口口② |----|
口①口口 |--①-|
口③②口 |②-③-|
37
①口口口 |----|
口口②口 |--①-|
口口口口 |--②-|
③④⑤⑥ |③④⑤⑥--|
38
口口口② |①---|
③口口④ |----|
①口②口 |--②-|
口③④口 |③-④-|
39
口口口⑦ |----|
⑥口口⑤ |---①②③|
④③②① |④-⑤-|
口口口口 |⑥-⑦-|
40
①口口口 |①---|
口②口口 |----|
口口口口 |--②-|
④口③口 |③-④-|
41
⑤口口口 |---①②③|
⑩⑨⑧⑦ |④-⑤-|
①②③④ |--⑥-|
口⑥口口 |⑦⑧⑨⑩--|
42
④⑤⑥口 |①---②-|
口口口口 |--③-④⑤|
②口⑦③ |⑥---⑦-|
⑧口口① |--⑧---|
43
口口④口 |①---|
口③口口 |----|
口口②口 |②---③-|
口口口① |--④---|
44
①口口口 |①---②-|
⑧口口② |--③-④⑤|
③口口⑦ |⑥---⑦-|
口⑥⑤④ |--⑧---|
45
口口①口 |①---|
口④口口 |----|
口口口③ |----|
口②口口 |②-③-④-|
46
②口①③ |①---②-|
⑦口口口 |--③-④⑤|
④⑤⑥口 |⑥---⑦-|
口口口⑧ |--⑧---|
47
口④口口 |①---|
口口③口 |----|
口口口口 |②---③-|
①②口口 |--④---|
48
②口口① |①---②-|
口口口③ |--③-④⑤|
④⑤⑥口 |⑥---⑦-|
⑦口口⑧ |--⑧---|
49
口口口口 |①---|
口①口口 |----|
口口口口
口口口口
口口口口
口④③口
口④③口 |②---③-|
口②②口 |--④---|
50
④⑤⑥口 |①---②-|
口口口口 |--③-④⑤|
②口⑦③ |⑥---⑦-|
⑧口口① |--⑧---|
51
口口④口 |①---|
口③口口 |----|
口口②口 |②---③-|
口口口① |--④---|
52
①口口口 |①---②-|
⑧口口② |--③-④⑤|
③口口⑦ |⑥---⑦-|
口⑥⑤④ |--⑧---|
53
口口①口 |①---|
口④口口 |----|
口口口③ |----|
口②口口 |②-③-④-|
54
②口①③ |①---②-|
⑦口口口 |--③-④⑤|
④⑤⑥口 |⑥---⑦-|
口口口⑧ |--⑧---|
55
口④口口 |①---|
口口③口 |----|
口口口口 |②---③-|
①②口口 |--④---|
56
②口口① |①---②-|
口口口③ |--③-④⑤|
④⑤⑥口 |⑥---⑦-|
⑦口口⑧ |--⑧---|
57
口口口口 |①---|
口①口口 |----|
口口口口 |----|
口口口口 |----|
58
②口口口 |①---|
口口口口 |----|
口口口口 |②---|
口①①口 |----|
59
口②口口 |①---|
口口口口 |----|
口①①口 |②---|
口口口口 |----|
60
口口②口 |①---|
口①①口 |----|
口口口口 |②---|
口口口口 |----|
61
口口口② |①---|
口口口口 |----|
口①①口 |②---|
口口口口 |----|
62
②口口口 |①---|
口口口口 |----|
口口口口 |②---|
①口口① |----|
63
口②口口 |①---|
口口口口 |----|
①口口① |②---|
口口口口 |----|
64
口口②口 |①---|
①口口① |----|
口口口口 |②---|
口口口口 |----|
65
口口口口 |①---②-|
口③②① |--③---|
口③②①
口口口口
⑥口口口
④口口⑦
④口口口 |④---⑤-|
口⑤⑤口 |⑥-⑦-|
66
④口③口 |①---|
③口口口 |②---|
②口口口 |③---|
①口口口 |④---|
67
④口口④ |①---|
③口⑤口 |②---|
②口口① |③---|
①口③口 |④-⑤-|
68
④口③口 |①---|
③口口口 |②---|
②口口① |③---|
①口口口 |④---|
69
④口口① |①---|
③口③口 |②---|
②口口④ |③---|
①口口口 |④---|
70
④口口③ |①---|
③口口口 |②---|
②口口口 |③---|
①①①口 |④---|
71
④口口口 |①---|
③口③② |②---|
②口①口 |③---|
①口口④ |④---|
72
④口口口 |①---|
③口口口 |②---|
②口口③ |③---|
①口①口 |④---|
73
④口①③ |①---|
③口④口 |②---|
②口口口 |③---|
①口口口 |④---|
74
口③口④ |①---|
口口口③ |②---|
口口口② |③---|
①①①① |④---|
75
④口口④ |①---|
口⑤口③ |②---|
①口口② |③---|
口③口① |④-⑤-|
76
口③口④ |①---|
口口口③ |②---|
①口口② |③---|
口口口① |④---|
77
①口口④ |①---|
口③口③ |②---|
④口口② |③---|
口口口① |④---|
78
③口口④ |①---|
口口口③ |②---|
口口口② |③---|
口①①① |④---|
79
口口口④ |①---|
②③口③ |②---|
口①口② |③---|
④口①① |④---|
80
①③⑥④ |①--②|
⑤⑦②口 |--③-|
①③⑥④ |④-⑤-|
⑤⑦②口 |⑥-⑦-|
81
⑥口口⑤ |①②③④|
口口口口 |⑤-⑥-|
③④口口
口口②①
口口口口
⑨⑩⑧⑦
口口口⑪ |⑦⑧⑨⑩|
⑫口口⑬ |⑪-⑫-⑬-|
82
②口口口 |①---|
口口口口 |----|
口口口口 |②---|
口①①口 |----|
83
口②口口 |①---|
口口口口 |----|
口①①口 |②---|
口口口口 |----|
84
口口②口 |①---|
口①①口 |----|
口口口口 |②---|
口口口口 |----|
85
口口口② |①---|
口口口口 |----|
口①①口 |②---|
口口口口 |----|
86
②口口口 |①---|
口口口口 |----|
口口口口 |②---|
①口口① |----|
87
口②口口 |①---|
口口口口 |----|
①口口① |②---|
口口口口 |----|
88
口口②口 |①---|
①口口① |----|
口口口口 |②---|
口口口口 |----|
89
口口口口 |①---|
口口口口 |----|
口①①口 |----|
口口口口 |----|
不確定度: 0