LANA - セカイノハズレ -
TOMOSUKE×Jazzin'park

BASIC

Level: 3
BPM: 214
Notes: 229

1
口口口口 |------|
口口口口 |------|
口口口口 |------|
口口口口 |------|
2
口口口口 |①-----|
①②③④ |②-----|
口口口口 |③-----|
口口口口 |④-----|
3
口①①口 |①-----|
口口口口 |------|
口口口口 |------|
口口口口 |------|
4
口口口口 |①-----|
口口口口 |②-----|
④③②① |③-----|
口口口口 |④-----|
5
口口口口 |①-----|
口①①口 |------|
口口口口 |------|
口口口口 |------|
6
口口口口 |①-----|
口口口口 |②-----|
口口口口 |③-----|
①②③④ |④-----|
7
口口口口 |①-----|
口口口口 |------|
口①①口 |------|
口口口口 |------|
8
口口口口 |①-----|
④③②① |②-----|
口口口口 |③-----|
口口口口 |④-----|
9
口①①口 |①-----|
口口口口 |------|
口口口口 |------|
口口口口 |------|
10
口口口口 |①-----|
口口口口 |②-----|
①②③④ |③-----|
口口口口 |④-----|
11
口口口口 |①-----|
口①①口 |------|
口口口口 |------|
口口口口 |------|
12
口口口口 |①-----|
口口口口 |------|
②口口② |②-----|
口①①口 |------|
13
口口口口 |①-----|
①②②① |----②-|
口口口口 |------|
口口口口 |------|
14
口①②口 |①-----|
口③④口 |②-----|
口口口口 |③-----|
口口口口 |④-----|
15
口口口口 |①-----|
口口口口 |②-----|
口①②口 |③-----|
口③④口 |④-----|
16
口口口口 |①-----|
口口口口 |②-----|
③口口④ |③-----|
①口口② |④-----|
17
③口口④ |①-----|
①口口② |②-----|
口口口口 |③-----|
口口口口 |④-----|
18
口①口口 |①-----|
口口口口 |------|
口口口口 |------|
口口口口 |------|
19
口口口口 |①-----|
口口①口 |------|
口口口口 |------|
口口口口 |------|
20
口口口口 |①-----|
口②口口 |------|
口①口口 |②-----|
口口口口 |------|
21
口①口口 |①-----|
口口口口 |------|
口口口口 |------|
口口口口 |------|
22
口口口口 |①-----|
②口口① |②-----|
④口口③ |③-----|
口口口口 |④-----|
23
口口口口 |①-----|
口口口口 |------|
口口口口 |②-----|
口口②① |------|
24
口口口口 |①-----|
口口口口 |------|
口口口口 |------|
口①口口 |------|
25
口口口口 |------|
口口口口 |------|
口口口口 |------|
口口口口 |------|
26
口②①口 |①-----|
口④③口 |②-----|
口口口口 |③-----|
口口口口 |④-----|
27
口口口口 |①-----|
口口口口 |②-----|
口②①口 |③-----|
口④③口 |④-----|
28
口口口口 |①-----|
口口口口 |②-----|
④口口③ |③-----|
②口口① |④-----|
29
④口口③ |①-----|
②口口① |②-----|
口口口口 |③-----|
口口口口 |④-----|
30
口口①口 |①-----|
口口口口 |------|
口口口口 |------|
口口口口 |------|
31
口口口口 |①-----|
口①口口 |------|
口口口口 |------|
口口口口 |------|
32
口口口口 |①-----|
口口②口 |------|
口口①口 |②-----|
口口口口 |------|
33
口口①口 |①-----|
口口口口 |------|
口口口口 |------|
口口口口 |------|
34
口口口口 |①-----|
①口口② |②-----|
③口口④ |③-----|
口口口口 |④-----|
35
口口口口 |①-----|
口口口口 |------|
口口口口 |②-----|
①②口口 |------|
36
口口口口 |①-----|
口口口口 |------|
口口口口 |------|
口口①口 |------|
37
口口口口 |------|
口口口口 |------|
口口口口 |------|
口口口口 |------|
38
口口口口 |------|
口口口口 |①-----|
口③②① |②-----|
口口口口 |③-----|
39
口口口口 |①-----|
口口口口 |------|
①口口口 |②-----|
口口②口 |------|
40
口口口口 |①-----|
口口口口 |------|
口口口口 |------|
口①口口 |------|
41
口口口口 |①-----|
口①①口 |------|
口口口口 |------|
口口口口 |------|
42
口口口口 |------|
①②③口 |①-----|
口口口口 |②-----|
口口口口 |③-----|
43
口②③口 |①-----|
口口口① |②-----|
口口口口 |③-----|
口口口口 |------|
44
口口口口 |①-----|
口口口口 |------|
口①①口 |------|
口口口口 |------|
45
口口口口 |①-----|
①口口① |------|
口口口口 |------|
口口口口 |------|
46
口口口口 |①-----|
口口口口 |------|
口口①① |------|
口口口口 |------|
47
口口口口 |①-----|
口口口口 |------|
①①口口 |------|
口口口口 |------|
48
口口口口 |①-----|
口①①口 |------|
口口口口 |------|
口口口口 |------|
49
①口口① |①-----|
口口口口 |------|
口口口口 |------|
口口口口 |------|
50
口口口口 |①-----|
口口①口 |------|
口口口口 |------|
口口口口 |------|
51
口口口口 |①-----|
口口口口 |------|
口口口口 |------|
口①口口 |------|
52
口口口口 |①-----|
口②②口 |------|
口①①口 |②-----|
口口口口 |------|
53
口①①口 |①-----|
口口口口 |------|
口口口口 |------|
口口口口 |------|
54
口口口口 |------|
口口口口 |------|
口口口口 |------|
口口口口 |------|
55
口口口口 |①-----|
口口口口 |②-----|
③口口④ |③-----|
①口口② |④-----|
56
③口口④ |①-----|
①口口② |②-----|
口口口口 |③-----|
口口口口 |④-----|
57
口①②口 |①-----|
口③④口 |②-----|
口口口口 |③-----|
口口口口 |④-----|
58
口口口口 |①-----|
口口口口 |②-----|
口①②口 |③-----|
口③④口 |④-----|
59
口②③口 |①-----|
①口口④ |②-----|
口口口口 |③-----|
口口口口 |④-----|
60
口口口口 |①-----|
口①②口 |②-----|
口③④口 |③-----|
口口口口 |④-----|
61
口口口口 |①-----|
口口口口 |------|
口口口口 |------|
①口口口 |------|
62
口口口口 |------|
口口口口 |------|
口口口口 |------|
口口口口 |------|
63
口口口口 |①-----|
口口口口 |②-----|
口③④口 |③-----|
口①②口 |④-----|
64
口③④口 |①-----|
口①②口 |②-----|
口口口口 |③-----|
口口口口 |④-----|
65
口口口口 |①-----|
口口口口 |②-----|
③口口④ |③-----|
①口口② |④-----|
66
口口口口 |①-----|
①口②口 |------|
口口口口 |②-----|
口口口口 |------|
67
口①①口 |①-----|
口口口口 |------|
口口口口 |------|
口口口口 |------|
68
①口口① |①-----|
口口口口 |------|
口口口口 |------|
口口口口 |------|
69
口口口口 |①-----|
口口口口 |------|
口①①口 |------|
口口口口 |------|
70
口口口口 |------|
口口口口 |------|
口口口口 |------|
口口口口 |------|
71
口口口口 |①-----|
口口口口 |②-----|
③口口④ |③-----|
①口口② |④-----|
72
③口口④ |①-----|
①口口② |②-----|
口口口口 |③-----|
口口口口 |④-----|
73
口①②口 |①-----|
口③④口 |②-----|
口口口口 |③-----|
口口口口 |④-----|
74
口口口口 |①-----|
口口口口 |②-----|
口①②口 |③-----|
口③④口 |④-----|
75
口②③口 |①-----|
①口口④ |②-----|
口口口口 |③-----|
口口口口 |④-----|
76
口口口口 |①-----|
口①②口 |②-----|
口③④口 |③-----|
口口口口 |④-----|
77
口口口口 |①-----|
口口口口 |------|
口口口口 |------|
①口口口 |------|
78
口口口口 |------|
口口口口 |------|
口口口口 |------|
口口口口 |------|
79
口口口口 |①-----|
口口口口 |②-----|
口③④口 |③-----|
口①②口 |④-----|
80
口③④口 |①-----|
口①②口 |②-----|
口口口口 |③-----|
口口口口 |④-----|
81
口口口口 |①-----|
口口口口 |②-----|
③口口④ |③-----|
①口口② |④-----|
82
③口口④ |①-----|
①口口② |②-----|
口口口口 |③-----|
口口口口 |④-----|
83
口①口口 |①-----|
口口口口 |------|
口口口口 |------|
口口口口 |------|
84
口口口口 |------|
口口口口 |------|
口口口口 |------|
口口口口 |------|
85
口口口口 |------|
口口口口 |①-----|
口③②① |②-----|
口口口口 |③-----|
86
口②口口 |①-----|
口口口口 |------|
①口口口 |②-----|
口口口口 |------|
87
口口①口 |①-----|
口口口口 |------|
口口口口 |------|
口口口口 |------|
88
口口口口 |------|
口口口口 |------|
口口口口 |------|
口口口口 |------|
89
口口口口 |①-----|
口口口口 |------|
口口口口 |------|
①口口① |------|
90
口口口口 |------|
口口口口 |------|
口口口口 |------|
口口口口 |------|
91
口口口口 |①-----|
口口口口 |------|
口口口口 |------|
口①①口 |------|
92
口口口口 |①-----|
口口口口 |------|
口①①口 |------|
口口口口 |------|
93
口口口口 |------|
口口口口 |------|
口口口口 |------|
口口口口 |------|
94
口口口口 |----①-|
口①①口 |------|
口口口口 |------|
口口口口 |------|

不確定度: 0

最終更新:2014年08月01日 22:50