Hello world!
Music by 源屋, Vocal by SOPHY

EXTREME

Level: 9
BPM: 175
Notes: 591

1
口口口口 |----|
口口口口 |----|
口口口口 |----|
口口口口 |----|
2
⑤⑤②② |①---|
①口④口 |②---|
③②口⑤ |③-④-|
口①①口 |--⑤-|
3
口口②口 |--①-|
⑤口口口 |②---|
口④①口 |--③-|
③口口口 |④-⑤-|
4
①①口口 |①---|
口口①口 |②---|
口口口口
口口②口

口⑤⑤口
口口口④
口口③③ |③-④-|
口口口口 |--⑤-|
5
口口口① |--①-|
口①②口 |--②-|
③口口④ |--③-|
口口②口 |--④-|
6
口④口③ |①-②-|
②口口口 |③-④-|
口口口⑤ |----|
①口口口 |--⑤-|
7
口③③口 |①---|
口④口口 |②-③-|
②口①④ |----|
口口口④ |--④-|
8
口⑦⑦口 |①---|
①口⑥口 |②-③-|
口②⑤口 |④-⑤-|
口③④口 |⑥-⑦-|
9
口口口口 |--①-|
①②⑥③ |②-③-|
口口⑤口 |--④-|
口口④口 |⑤-⑥-|
10
①⑤④⑦ |①②③-|
②口⑩口 |④⑤-⑥|
③口口⑥ |-⑦-⑧|
口⑧口⑨ |⑨-⑩-|
11
①⑤④⑦ |①②③-|
②口⑩口 |④⑤-⑥|
③口口⑥ |-⑦-⑧|
口⑧口⑨ |⑨-⑩-|
12
①⑤④⑦ |①②③-|
②口⑩口 |④⑤-⑥|
③口口⑥ |-⑦-⑧|
口⑧口⑨ |⑨-⑩-|
13
口口口口 |①②③④|
口⑤口⑥ |-⑤-⑥|
④口③口
②口①口

⑨⑦⑧口
⑪口⑩口
口口口口 |⑦⑧⑨⑩|
口⑫⑫口 |⑪-⑫-|
14
⑧⑨⑩⑥ |①②③④|
口⑦⑬⑤ |⑤⑥⑦⑧|
①②③④ |⑨⑩-⑪|
口⑪口⑫ |⑫-⑬-|
15
口口口⑧ |①②③④|
⑤⑥⑪口 |⑤⑥-⑦|
④③②⑦ |-⑧-⑨|
口⑨①⑩ |⑩-⑪-|
16
口口口⑧ |①②③④|
⑤⑥⑪口 |⑤⑥-⑦|
④③②⑦ |-⑧-⑨|
口⑨①⑩ |⑩-⑪-|
17
①⑦⑧口 |①②③④|
②口⑩口 |-⑤-⑥|
③⑥口⑤ |-⑦⑧-|
④口⑨口 |⑨-⑩-|
18
口④③口 |①---|
口⑥⑤口 |②---|
口口②② |③-④-|
①①口口 |⑤-⑥-|
19
口口③③ |----|
口口口口 |----|
②②口口 |--①-|
口口①① |②-③-|
20
口③口口 |①---|
①①口口 |②-③-|
口口口口
口②口口

口口口口
口⑤⑤口
口④④口 |--④-|
口口口口 |--⑤-|
21
①口③① |--①-|
口口④口 |--②-|
②口⑤② |--③-|
口口口口 |④-⑤-|
22
口口③口 |①---|
口④口口 |②---|
②②⑤口 |③-④-|
口⑥①① |⑤-⑥-|
23
口②②口 |--①-|
口⑤口口 |--②-|
口口④③ |--③-|
①口口① |④-⑤-|
24
口口口④ |①---|
①口③⑤ |②-③-|
口②口⑥ |--④-|
口口口口 |⑤-⑥-|
25
口⑤口口 |--①-|
④口⑥口 |②-③-|
口③口⑦ |④-⑤-|
②①口口 |⑥-⑦-|
26
⑥⑤①① |①---|
④口口口 |②---|
口③口口 |③-④-|
口口②② |⑤-⑥-|
27
口口口口 |----|
口②②口 |--①-|
口口③口 |--②-|
口①①口 |--③-|
28
②口①口 |①---|
⑥⑤④③ |②---|
口口口口 |③-④-|
口口口口 |⑤-⑥-|
29
口口口口 |----|
口③③口 |①---|
口②②口 |②---|
口①①口 |③---|
30
①口口① |①---|
口口口口 |----|
口口口口 |----|
口口口口 |----|
31
口口口口 |----|
口③③口 |--①-|
口口口口 |--②-|
口②①口 |--③-|
32
口②②③ |①---|
④口口口 |②---|
口①①⑤ |③-④-|
⑥口口口 |⑤-⑥-|
33
口口口口 |----|
口口口口 |----|
口口口口 |----|
口口口口 |----|
34
⑤⑤②② |①---|
①口④口 |②---|
③②口⑤ |③-④-|
口①①口 |--⑤-|
35
口口②口 |--①-|
⑤口口口 |②---|
口④①口 |--③-|
③口口口 |④-⑤-|
36
①①口口 |①---|
口口①口 |②---|
口口口口
口口②口

口⑤⑤口
口口口④
口口③③ |③-④-|
口口口口 |--⑤-|
37
口口口口 |--①-|
①②口③ |--②-|
口③口④ |--③-|
①口②口 |--④-|
38
口④口③ |①-②-|
②口口口 |③-④-|
口口口⑤ |----|
①口口口 |--⑤-|
39
口③③口 |①---|
口④口口 |②-③-|
②口①④ |----|
口口口④ |--④-|
40
口⑥⑥口 |①---|
①口⑤口 |②---|
⑥②④口 |③-④-|
口口③口 |⑤-⑥-|
41
口口口口 |--①-|
①②口③ |②-③-|
口口口口 |----|
口口口口 |----|
42
⑤⑤②② |①---|
①口④口 |②---|
③②口⑤ |③-④-|
口①①口 |--⑤-|
43
口口②口 |--①-|
⑤口口口 |②---|
口④①口 |--③-|
③口口口 |④-⑤-|
44
①①口口 |①---|
口口①口 |②---|
口口口口
口口②口

口⑤⑤口
口口口④
口口③③ |③-④-|
口口口口 |--⑤-|
45
口口口① |--①-|
口①②口 |--②-|
③口口④ |--③-|
口口②口 |--④-|
46
口④口③ |①-②-|
②口口口 |③-④-|
口口口⑤ |----|
①口口口 |--⑤-|
47
口④④口 |①-②-|
口⑤口口 |③-④-|
③②①⑤ |----|
口口口⑤ |--⑤-|
48
口⑥⑥口 |①---|
①口⑤口 |②---|
口②④口 |③-④-|
口口③口 |⑤-⑥-|
49
口口口口 |--①-|
①②⑥③ |②-③-|
口口⑤口 |--④-|
口口④口 |⑤-⑥-|
50
口①①口 |①---|
口口口口 |----|
口口口口 |----|
口口口口 |----|
51
口口口口 |①---|
口口口口 |----|
口①①口 |----|
口口口口 |----|
52
口③口口 |①---|
口口②口 |②-③-|
①口口①
口口口口

口口口口
④口口④
⑤口口⑤ |--④-|
口口口口 |--⑤-|
53
口口口口 |----|
口口口口 |----|
口口口口 |----|
口①①口 |①---|
54
③口口口 |①---|
口口口口 |②-③-|
②口①口 |----|
口口口④ |④---|
55
口口口① |①---|
口口③口 |--②-|
口②口口 |----|
口口口口 |③---|
56
口口口口 |①---|
口①口口 |----|
口口口口 |----|
口口口口 |----|
57
口口口口 |----|
口口口口 |----|
口口口口 |----|
口口口口 |----|
58
口口口口 |----|
口口口口 |①---|
口③③口 |②---|
①②口口 |③---|
59
④④④④ |①---|
②②①① |②---|
口口口口 |③---|
③口口③ |④---|
60
口口⑤⑤ |①---|
②④②① |②---|
⑤口②③ |③-④-|
口①①口 |--⑤-|
61
口②口口 |--①-|
口口口⑤ |②---|
口①④口 |--③-|
口口口③ |④-⑤-|
62
口口①① |①---|
口①口口 |②---|
口口口口
口②口口

口⑤⑤口
④口口口
③③口口 |③-④-|
口口口口 |--⑤-|
63
口口口口 |--①-|
③口②① |--②-|
④口③口 |--③-|
口②口① |--④-|
64
③口④口 |①-②-|
口口口② |③-④-|
口口口口 |----|
口口口① |----|
65
口③③口 |①---|
口口④口 |②-③-|
④①口② |----|
④口口口 |--④-|
66
口⑦⑦口 |①---|
口⑥口① |②-③-|
口⑤②⑦ |④-⑤-|
口④③口 |⑥-⑦-|
67
口口口口 |--①-|
③口②① |②-③-|
口口口口 |----|
口口口口 |----|
68
口②⑤⑤ |①---|
②④②① |②---|
⑤②口③ |③-④-|
口①①口 |--⑤-|
69
口②口口 |--①-|
口口口⑤ |②---|
口①④口 |--③-|
口口口③ |④-⑤-|
70
口口①① |①---|
口①口口 |②---|
口口口口
口②口口

口⑤⑤口
④口口口
③③口口 |③-④-|
口口口口 |--⑤-|
71
①口口口 |--①-|
口②①口 |--②-|
④口口③ |--③-|
口②口口 |--④-|
72
③口④口 |①-②-|
口口口② |③-④-|
口口口口 |----|
口口口① |----|
73
口③③口 |①---|
口口④口 |②-③-|
④①口② |----|
④口口口 |--④-|
74
口⑦⑦口 |①---|
口⑥口① |②-③-|
口⑤②口 |④-⑤-|
口④③口 |⑥-⑦-|
75
口口口口 |--①-|
③⑥②① |②-③-|
口⑤口口 |--④-|
口④口口 |⑤-⑥-|
76
⑦④⑤① |①②③-|
口⑩口② |④⑤-⑥|
⑥口口③ |-⑦-⑧|
⑨口⑧口 |⑨-⑩-|
77
⑦④⑤① |①②③-|
口⑩口② |④⑤-⑥|
⑥口口③ |-⑦-⑧|
⑨口⑧口 |⑨-⑩-|
78
⑦④⑤① |①②③-|
口⑩口② |④⑤-⑥|
⑥口口③ |-⑦-⑧|
⑨口⑧口 |⑨-⑩-|
79
口口口口 |①②③④|
⑥口⑤口 |-⑤-⑥|
口③口④
口①口②

口⑧⑦⑨
口⑩口⑪
口口口口 |⑦⑧⑨⑩|
口⑫⑫口 |⑪-⑫-|
80
⑥⑩⑨⑧ |①②③④|
⑤⑬⑦口 |⑤⑥⑦⑧|
④③②① |⑨⑩-⑪|
⑫口⑪口 |⑫-⑬-|
81
⑧口口口 |①②③④|
口⑪⑥⑤ |⑤⑥-⑦|
⑦②③④ |-⑧-⑨|
⑩①⑨口 |⑩-⑪-|
82
⑧口口口 |①②③④|
口⑪⑥⑤ |⑤⑥-⑦|
⑦②③④ |-⑧-⑨|
⑩①⑨口 |⑩-⑪-|
83
口⑧⑦① |①②③④|
口⑩口② |-⑤-⑥|
⑤口⑥③ |-⑦⑧-|
口⑨口④ |⑨-⑩-|
84
①口口① |①---|
口口口口 |----|
口口口口 |----|
口口口口 |----|

不確定度: 0

最終更新:2014年08月01日 22:40