Dance My Generation
ゴールデンボンバー

ADVANCED

Level: 8
BPM: 133
Notes: 542

1
口口口口 |----|
口口口口 |----|
口口口口 |----|
口口口口 |----|
2
口口口口 |----|
口口口口 |----|
口口口口 |----|
口口口口 |----|
3
口口②口 |①---|
⑤⑥③口 |②---|
①口④口 |③---|
口①口口 |④-⑤⑥|
4
⑦口口① |-①-②|
口⑦口② |-③④⑤|
③④⑤⑥ |⑥---|
口口口口 |⑦---|
5
口口②① |①---|
口口③口 |②---|
④口口口 |③---|
口④口口 |④---|
6
口口①口 |①②-③|
②③⑪口 |-④⑤⑥|
口⑥⑤④ |⑦⑧⑨⑩|
⑦⑧⑨⑩ |⑪---|
7
口口口① |①-②③|
②口口口 |④⑤--|
③口口口
口④⑤口

⑥口⑥口
⑨⑧⑧⑨
口⑦口⑦ |⑥--⑦|
口口口口 |--⑧⑨|
8
口口口口 |--①②|
口口口口 |-③④-|
④③③④
②①①②

⑤口口⑤
口⑥⑥口
口口口口 |⑤--⑥|
⑦口口⑦ |--⑦-|
9
口口口口 |①-②③|
口口口② |④⑤--|
口①口③
口⑤④口

⑥口⑥口
⑨⑧⑧⑨
⑦口⑦口 |⑥--⑦|
口口口口 |--⑧⑨|
10
口口口口 |--①②|
口口口口 |-③④-|
④③③④
②①①②

⑤⑥⑥⑤
口⑦⑦口
口口口口 |⑤-⑥-|
⑧口口⑧ |⑦-⑧-|
11
口口口口 |①-②③|
②口口口 |④⑤--|
③①①口
口④⑤口

⑥口⑥口
⑨⑧⑧⑨
口⑦口⑦ |⑥--⑦|
口口口口 |--⑧⑨|
12
口口口口 |--①②|
口口口口 |-③④-|
④③③④
②①①②

⑤口口⑤
口⑥⑥口
口口口口 |⑤--⑥|
⑦口口⑦ |--⑦-|
13
⑥⑧⑥⑧ |①-②③|
口口口② |④⑤--|
⑦①⑦③ |⑥--⑦|
口⑤④口 |--⑧-|
14
⑤⑦⑤口 |--①②|
①②口口 |③④--|
口⑥口⑥ |⑤---|
口③④口 |⑥-⑦-|
15
⑦口口⑦ |--①-|
口口①口 |②-③-|
②⑤③④ |④-⑤⑥|
口口⑥口 |--⑦-|
16
口口口口 |①-②-|
①④⑦① |③-④-|
②⑥⑤② |⑤-⑥⑦|
③口口③ |----|
17
⑧口口口 |--①-|
①口口⑦ |②-③④|
⑥口口② |⑤--⑥|
③口⑤④ |-⑦-⑧|
18
口②①口 |①-②-|
口①②口 |③-④⑤|
⑤④③⑤ |----|
口③④口 |----|
19
①⑥⑤③ |--①-|
⑦②④口 |②-③-|
⑧④②口 |④-⑤⑥|
③口口① |--⑦⑧|
20
口口口③ |①-②-|
口口②口 |③-④⑤|
口口口④ |----|
①口口⑤ |----|
21
⑧①②⑦ |--①-|
⑤②①口 |②-③-|
⑥③④口 |④-⑤⑥|
口④③口 |-⑦-⑧|
22
口②②口 |①-②-|
口①①口 |③④-⑤|
口⑤⑤口
④③③④

口口口口
⑧⑦⑦⑧
⑥口口⑥ |⑥-⑦⑧|
口口口口 |----|
23
⑧①②⑧ |①-②-|
口口口口 |③-④-|
③⑥④⑤ |⑤-⑥⑦|
口口⑦口 |--⑧-|
24
口口口口 |①-②-|
①④⑦① |③-④-|
②⑥⑤② |⑤-⑥⑦|
③口口③ |----|
25
⑧口口口 |--①-|
①口口⑦ |②-③-|
⑥口口② |④-⑤⑥|
③口⑤④ |-⑦-⑧|
26
口②①口 |①-②-|
口①②口 |③-④⑤|
⑤④③⑤
口③④口

口⑥口⑥
⑥口⑥口
口口口口 |----|
口口口口 |⑥---|
27
①⑦口③ |--①-|
⑥②口口 |②-③-|
⑧口②⑤ |④-⑤⑥|
③口④① |-⑦-⑧|
28
口口口③ |①-②-|
口口②口 |③-④⑤|
口口口④ |----|
①口口⑤ |----|
29
口①②口 |--①-|
口②①口 |②-③-|
口③口口
口口③口

口口口⑦
⑤⑧⑧口
⑥口④口 |④-⑤⑥|
口④口口 |--⑦⑧|
30
口口口口 |----|
口口口口 |----|
口口口口 |----|
口口口口 |----|
31
口口口口 |----|
口口①口 |--①-|
口②口口 |②--③|
③口口④ |--④-|
32
口口口④ |①--②|
口口口③ |--③-|
口口①② |④---|
口口口口 |----|
33
口①①① |----|
口口②② |--①-|
口口口③ |②--③|
口口口④ |--④-|
34
④④④⑤ |①---|
③③口口 |②---|
②口口口 |③---|
①口口口 |④-⑤-|
35
口口口口 |①---|
口⑤④① |--②-|
口③⑤口 |③--④|
②口口口 |--⑤-|
36
口口①⑤ |①--②|
口④③① |--③-|
②③④口 |④---|
口②口口 |--⑤-|
37
②口口口 |①-②③|
③口口口 |-④⑤⑥|
⑥⑤④①
口口口口

⑩⑨⑨⑩
⑩⑨⑨⑩
口口口口 |⑦-⑧-|
⑧⑦⑦⑧ |⑨-⑩-|
38
⑨⑧⑧⑨ |①②③-|
口⑦⑦口 |④⑤⑥-|
口③②① |⑦-⑧⑨|
④⑤⑥口 |----|
39
口口口口 |①--②|
①口口① |--③-|
③②②③ |④---|
口④④口 |----|
40
①口口② |①---|
①口口② |②---|
②口口①
②口口①

⑥③口⑥
口口④口
口⑤口口 |③④-⑤|
口口③口 |--⑥-|
41
口口④口 |①-②-|
口③口⑤ |③-④⑤|
口口②口
口①口口

口口口口
口口⑥口
⑦⑧口口 |⑥⑦-⑧|
口⑨⑨口 |--⑨-|
42
①口口② |①---|
①口口② |②---|
②口口①
②口口①

⑥③口⑥
口口④口
口⑤口口 |③④-⑤|
口口③口 |--⑥-|
43
口口④口 |①-②-|
口③⑥⑤ |③-④⑤|
⑦⑧②口 |⑥⑦-⑧|
口①口口 |----|
44
①口口② |①---|
①口口② |②---|
②口口①
②口口①

⑥③口⑥
口口④口
口⑤口口 |③④-⑤|
口口③口 |--⑥-|
45
口口④口 |①-②-|
口③口口 |③-④-|
口口②口
口①口口

口口口口
口口⑤口
⑥⑦口口 |⑤⑥-⑦|
口⑧⑧口 |--⑧-|
46
②口口口 |①---|
①③④① |----|
口④③口 |②--③|
口口口② |--④-|
47
口口口① |--①-|
口口口口 |----|
口口口口 |----|
①口口口 |----|
48
①口口② |①---|
①口口② |②---|
②口口①
②口口①

⑥③口⑥
口口④口
口⑤口口 |③④-⑤|
口口③口 |--⑥-|
49
口口口口 |--①②|
①②③口 |③---|
④口④口 |④---|
口④口口 |----|
50
①口口② |①---|
①口口② |②---|
②口口①
②口口①

⑥③口⑥
口口④口
口⑤口口 |③④-⑤|
口口③口 |--⑥-|
51
口②②③ |--①-|
口⑤④口 |②---|
口④⑤口 |③-④⑤|
③①①口 |----|
52
①口口② |①---|
①口口② |②---|
②口口①
②口口①

⑥③口⑥
口口④口
口⑤口口 |③④-⑤|
口口③口 |--⑥-|
53
口口口口 |--①②|
①口口口 |③---|
口口口②
③口口口

口口口口
口④④口
⑦⑤⑤⑦ |④⑤-⑥|
口⑥⑥口 |--⑦-|
54
①④口① |①---|
④③②口 |----|
口②③④ |②--③|
口口④口 |--④-|
55
口④①口 |--①-|
④③②① |----|
①②③④ |②--③|
口①④口 |--④-|
56
①口口② |①---|
口④③口 |②---|
口③④口 |③--④|
②口口① |----|
57
①口口口 |①---|
口口口口 |----|
口口口口 |----|
口口口① |----|


不確定度: 0

最終更新:2013年10月17日 15:58