虚空と光明のディスクール
日向美ビタースイーツ♪

EXTREME

Level: 8
BPM: 140
Notes: 569

1
口口口口 |----|
口口口口 |----|
口口口口 |----|
口口口口 |----|
2
口⑧口⑧ |①-②-|
①⑤②⑥ |③-④-|
⑦⑦口④ |⑤-⑥-|
③③口口 |⑦-⑧-|
3
口口⑦口 |--①-|
口④①⑤ |②-③-|
⑥⑥口③ |④-⑤-|
②②口口 |⑥-⑦-|
4
口口口口 |①-②-|
口②口口 |③-④-|
④口口①
口口③③

口⑧口⑧
⑥口⑤口
口口⑦⑦ |⑤-⑥-|
口口口口 |⑦-⑧-|
5
口口口口 |--①-|
口①口口 |②-③-|
③口口口
口口②②

口口口口
⑤⑦④口
口口⑥⑥ |④-⑤-|
口口口口 |⑥-⑦-|
6
①①口口 |①-②-|
口口②口 |③-④-|
口口口④
口③口口

⑧口⑧口
⑤⑤口⑥
⑦口口口 |⑤-⑥-|
口口口口 |⑦-⑧-|
7
口口⑦口 |--①-|
④④①⑤ |②-③-|
⑥口口③ |④-⑤-|
口②口口 |⑥-⑦-|
8
口口口口 |①-②-|
口②口口 |③-④-|
④口①①
口口③口

口⑧口⑧
⑥口⑤⑤
口口口⑦ |⑤-⑥-|
口口口口 |⑦-⑧-|
9
口口口口 |--①-|
口①口口 |②-③-|
③口口口
口口②口

口口口口
⑤⑦④④
口口口⑥ |④-⑤-|
口口口口 |⑥-⑦-|
10
①口口① |①---|
口口口口 |②-③-|
②④口口 |--④-|
口③⑤口 |⑤---|
11
口口口口 |①-②-|
口口口口 |--③-|
口口①③
口口口②

口口口口
⑥⑥口⑦
④④⑤口 |④-⑤-|
口口口⑥ |⑥-⑦-|
12
①①口口 |①---|
口口口口 |②---|
口口②③ |③---|
口口口④ |④---|
13
③③口口 |①---|
口口口④ |②---|
①①②③ |③---|
口口①口 |④---|
14
口口②口 |①---|
口口①口 |②---|
口口口口
①①口口

口口口③
口口口④
口口口口 |③---|
口④口口 |④---|
15
口⑤口口 |①---|
①口口口 |②-③-|
③口①② |④---|
口口⑤④ |⑤---|
16
口口口口 |①---|
①口口口 |②---|
口口①② |③---|
口口④③ |④---|
17
口口口口 |①---|
口口口口 |②---|
③③①② |③---|
口口④③ |④---|
18
①①口口 |①---|
口口口① |②---|
口口②③ |③---|
口口口④ |④---|
19
口口口③ |①---|
口口口③ |②---|
⑤④①② |③-④-|
⑤④口口 |⑤---|
20
口口⑥口 |①---|
①口④⑤ |②---|
口②口③ |③-④-|
口口①口 |⑤-⑥-|
21
口口口口 |--①-|
口口口口 |②---|
口⑤④口 |③-④-|
③①②⑥ |⑤-⑥-|
22
①口口口 |①---|
①口口口 |②---|
口口口②
口口口口

口口口口
⑤口口口
⑤③④口 |③---|
口③口口 |④-⑤-|
23
⑤口口口 |①-②-|
⑤口口④ |③-④-|
口口口④ |----|
③②①口 |⑤---|
24
口口口① |①---|
口口口① |②---|
口口口口
口口②口

⑥口口④
口⑤③口
口③⑤口 |③-④-|
④口口⑥ |⑤-⑥-|
25
口①口口 |--①-|
①口口口 |②-③-|
⑤⑦④② |④-⑤-|
口③②⑥ |⑥-⑦-|
26
口口口口 |①---|
①口口口 |②---|
口口口口
①②口口

口③口口
⑥口④⑤
口口口口 |③-④-|
⑥口口⑤ |⑤-⑥-|
27
口口口口 |----|
口②口口 |--①-|
③口③口 |----|
口②口① |②-③-|
28
口口口口 |----|
口口口口 |----|
口口口口 |----|
口口口口 |----|
29
①①①① |①---|
口口口口 |②---|
口口口口
②口口②

⑤口口⑥
口⑤⑥口
③口口④ |③-④-|
⑥③④口 |⑤-⑥-|
30
④口口③ |--①-|
④⑤⑤③ |②---|
③⑤⑤④ |③-④-|
③①②④ |--⑤-|
31
口①口口 |①---|
②口口口 |②---|
口⑤口③ |③---|
口口④口 |④-⑤-|
32
口口口口 |①-②-|
②口②口 |--③-|
①口口口
口③口③

口口口口
口口口④
⑥口⑥口 |--④-|
口口⑤口 |⑤-⑥-|
33
①①①① |①---|
口口口口 |②---|
口口口口
②口口②

⑤口口⑥
口⑤⑥口
③口口④ |③-④-|
⑥③④口 |⑤-⑥-|
34
口口口③ |--①-|
口⑤⑤③ |②---|
④⑤⑤口 |③-④-|
④①②口 |--⑤-|
35
口口①口 |①---|
④③口② |②---|
口口口④ |③---|
口口口口 |④---|
36
③口②口 |①-②-|
口②③③ |--③-|
口①口口
口口①口

口口口口
口口口口
④④口口 |--④-|
口口口④ |----|
37
①①①① |①---|
口口口口 |②---|
口口口口
②口口②

⑤口口⑥
口⑤⑥口
③口口④ |③-④-|
⑥③④口 |⑤-⑥-|
38
⑤口口③ |--①-|
口⑥⑥③ |②---|
④⑥⑥口 |③-④-|
④①②口 |⑤-⑥-|
39
口口④口 |①-②-|
②⑥⑦⑤ |③-④-|
③口口① |⑤-⑥-|
⑧⑧口口 |⑦-⑧-|
40
④④口③ |①-②-|
②口口口 |③-④-|
口口①①
口口口口

口口口口
⑦⑦口⑤
口口口⑥ |--⑤-|
口口口口 |⑥-⑦-|
41
口口口② |①---|
口口口口 |②-③-|
口口③口
①①口①

⑦口口⑦
口④⑦口
口口口口 |④-⑤-|
⑥⑤口⑥ |⑥-⑦-|
42
口口口口 |--①-|
口①口口 |②---|
口口口②
口口口口

口口口口
口口口口
③口口⑥ |③-④-|
口⑤④口 |⑤-⑥-|
43
口①口① |①---|
①口口口 |②-③-|
③口③口
口口口②

口⑥口⑥
口口⑤口
口④口⑦ |④-⑤-|
⑦口⑦口 |⑥-⑦-|
44
口①口口 |----|
口口口② |----|
③口口口 |--①-|
口③口口 |②-③-|
45
口口口口 |①---|
口口口口 |----|
口口口口 |----|
口口口① |----|
46
口口①口 |----|
②口口口 |----|
口口口③ |--①-|
口口③口 |②-③-|
47
口口口口 |----|
口口口口 |----|
口口口口 |----|
口口口口 |----|
48
口①口口 |----|
口口口② |----|
③口口口 |--①-|
口③口口 |②-③-|
49
口口口口 |----|
口口口口 |----|
口口口口 |----|
口口口口 |----|
50
口口①口 |----|
②口口口 |----|
口口口③ |--①-|
口口③口 |②-③-|
51
口口口口 |----|
口口口口 |----|
口口口口 |----|
口口口口 |----|
52
口①口口 |----|
①口②口 |----|
口③口② |--①-|
③口口口 |②-③-|
53
②②③口 |①---|
口④口③ |②---|
④口⑤口 |--③-|
口口①⑤ |④-⑤-|
54
口①④口 |--①-|
①⑤②④ |②-③-|
⑤③⑥② |--④-|
③口口⑥ |⑤-⑥-|
55
口③②② |①---|
⑤口④口 |②---|
③口口口 |--③-|
①⑤口④ |④-⑤-|
56
口④①口 |--①-|
⑥②⑤③ |②-③-|
④口口① |--④-|
②⑥③⑤ |⑤-⑥-|
57
②②口口 |①---|
口口口口 |②---|
口口口口
口口①口

⑤口④口
口⑤口口
口③口④ |--③-|
③口口口 |④-⑤-|
58
⑥②⑤③ |--①-|
口⑥③口 |②-③-|
②④①⑤ |--④-|
④口口① |⑤-⑥-|
59
口口口口 |①---|
口口②② |②---|
口口口口
口①口口

口④口⑤
口口⑤口
④口③口 |--③-|
口口口③ |④-⑤-|
60
③口②口 |--①-|
口③口口 |②-③-|
口①⑥② |④-⑤-|
①口④⑤ |⑥---|
61
口口口口 |①-②-|
口口②口 |③-④-|
①①口④
③③口口

⑤⑤⑧⑧
口口口⑧
⑦⑦口口 |⑤-⑥-|
口口⑥口 |⑦-⑧-|
62
④④⑦口 |--①-|
①口口⑤ |②-③-|
⑥⑥口③ |④-⑤-|
②②口口 |⑥-⑦-|
63
口口口口 |①-②-|
口②口口 |③-④-|
④口①①
口口③③

⑧⑧⑤⑤
⑧口口口
口口⑦⑦ |⑤-⑥-|
口⑥口口 |⑦-⑧-|
64
口口④④ |--①-|
⑤⑦口① |②-③-|
③口⑥⑥ |④-⑤-|
口口②② |⑥-⑦-|
65
口口口口 |①-②-|
口口②口 |③-④-|
①①口④
③③口口

⑤⑤⑧⑧
口口口⑧
⑦⑦口口 |⑤-⑥-|
口口⑥口 |⑦-⑧-|
66
④④⑦口 |--①-|
①口口⑤ |②-③-|
⑥⑥口③ |④-⑤-|
②②口口 |⑥-⑦-|
67
口口口口 |①-②-|
口②口口 |③-④-|
④口①①
口口③③

⑧⑧⑤⑤
⑧口口口
口口⑦⑦ |⑤-⑥-|
口⑥口口 |⑦-⑧-|
68
口口口口 |--①-|
口⑦⑤① |②-③-|
③④⑥口 |④-⑤-|
口口②② |⑥-⑦-|
69
①①①① |①---|
口口口口 |----|
口口口口 |----|
口口口口 |----|


不確定度: 0

最終更新:2013年12月15日 00:52