PULSE LASER
ヒゲドライバー

EXTREME

Level: 9
BPM: 165
Notes: 694

1
口口口口 |----|
口口口口 |----|
口口口口 |----|
口口口口 |----|
2
①口口口 |--①-|
②口口口 |--②-|
③口口口 |--③-|
④口口口 |--④-|
3
口①②口 |--①-|
口③④口 |--②③|
口⑤⑥口 |--④⑤|
口⑦口口 |--⑥⑦|
4
②口口① |①--②|
③⑦口① |③-④-|
口⑧⑥⑥ |⑤--⑥|
⑤口口④ |--⑦⑧|
5
⑦口⑧① |-①--|
③⑥口⑧ |②-③-|
②口⑤口 |④⑤⑥⑦|
口口口④ |⑧---|
6
口⑥口口 |①②-③|
⑥④③口 |--④-|
①口口⑦ |⑤--⑥|
②口⑤⑧ |--⑦⑧|
7
①⑥②口 |-①--|
口口⑤④ |②-③-|
⑦⑧⑨⑩ |④⑤⑥-|
口口③口 |⑦⑧⑨⑩|
8
①⑥③③ |①②-③|
②⑥⑦口 |--④-|
口口⑧口 |⑤--⑥|
④口口⑤ |--⑦⑧|
9
⑦⑦⑧⑥ |-①--|
口⑨口⑤ |②-③-|
①口口④ |④⑤⑥-|
③口口② |⑦-⑧⑨|
10
⑥口口⑥ |①②-③|
⑦⑦口口 |--④-|
③口①④ |⑤--⑥|
⑤⑤②口 |--⑦-|
11
口⑥②口 |①-②-|
⑥⑧④② |③-④-|
⑧⑤①④ |⑤-⑥-|
口⑦③口 |⑦-⑧-|
12
③口⑤② |①-②-|
口口口口 |③-④⑤|
口口口口
①口④①

口⑦口口
口口口口
口口口口 |--⑥-|
⑧⑥口口 |⑦-⑧-|
13
①⑤⑥① |①--②|
②口口② |--③-|
口③③口 |④-⑤-|
口④⑦口 |⑥-⑦-|
14
②⑤口③ |①-②-|
口口口口 |③-④⑤|
口口口口
①④口①

口口口口
口口口口
口口口口 |--⑥-|
⑧口⑥⑦ |⑦-⑧-|
15
①⑥⑤① |①--②|
②口口② |--③-|
口③③口 |④-⑤-|
口⑦④口 |⑥-⑦-|
16
③⑥⑤② |①-②-|
口⑧口口 |③-④⑤|
口口口口 |--⑥-|
①⑦④① |⑦-⑧-|
17
①⑤⑥① |①--②|
②口口② |--③-|
口③③口 |④-⑤-|
口④⑦口 |⑥-⑦-|
18
②口口③ |①---|
④④口口 |--②-|
③口口② |③---|
①口口① |--④-|
19
口⑥②口 |①-②-|
⑥⑧④② |③-④-|
⑧⑤①④ |⑤-⑥-|
口⑦③口 |⑦-⑧-|
20
④口①④ |①--②|
口口口② |----|
口口①口 |③--④|
口③③② |----|
21
口①口口 |①--②|
②口口口 |----|
口①口口
②口口口

④⑤⑤口
口口口③
⑤口口⑤ |③-④-|
口③④口 |⑤---|
22
口口④① |①--②|
③口②口 |----|
④口①口 |③--④|
口口③② |----|
23
①口口口 |①--②|
口②口③ |--③-|
口①口口
②③口口

口⑥口⑤
④口⑦口
⑤⑦口④ |④-⑤-|
口口⑥口 |⑥-⑦-|
24
④口①④ |①--②|
口口口② |----|
口口①口 |③--④|
口③③② |----|
25
口①口口 |①--②|
②口口口 |--③-|
③①口口
②口口③

⑤⑥⑥口
口⑥⑥④
口口口⑤ |④-⑤-|
口④口口 |⑥---|
26
④口口② |①--②|
⑤口口③ |--③-|
口①①口 |---④|
②③⑤④ |--⑤-|
27
④②①③ |①---|
口②①口 |②---|
①③④② |③---|
③口口④ |④---|
28
口口①口 |--①-|
①口口口 |--②-|
②口口①
②①口口

口口⑥③
口④③口
口口⑤口 |③-④⑤|
口⑥口口 |--⑥-|
29
口①口口 |--①-|
口口口① |--②-|
①口口②
口口①②

③⑥口口
口③④口
口⑤口口 |③-④⑤|
口口⑥口 |--⑥-|
30
口口①口 |--①-|
①口口口 |--②-|
②口口①
②①口口

口口⑥口
口④③③
口口⑤口 |③-④⑤|
口⑥口口 |--⑥-|
31
④⑥口② |①-②-|
口口口⑧ |③-④-|
⑤口口口 |⑤-⑥-|
③口⑦① |⑦-⑧-|
32
口口①口 |--①-|
①口口口 |--②-|
②口口①
②①口口

口口⑥③
口④③口
口口⑤口 |③-④⑤|
口⑥口口 |--⑥-|
33
③①④③ |--①-|
④⑤⑤① |--②-|
①③③④ |③--④|
②④①② |--⑤-|
34
口①口口 |①---|
口口口① |----|
①口口口
口口①口

口口口口
②口口②
口口口口 |----|
口口口口 |--②-|
35
②④④② |①-②-|
口⑤⑤口 |③-④-|
口⑤⑤口 |⑤---|
①③③① |----|
36
③口口① |①②-③|
④⑧口② |④-⑤-|
口⑨⑦⑦ |⑥--⑦|
⑥口口⑤ |--⑧⑨|
37
⑦口⑧① |-①--|
③⑥口⑧ |②-③-|
②口⑤口 |④⑤⑥⑦|
口口口④ |⑧---|
38
口⑥口口 |①②-③|
⑥④③口 |--④-|
①口口⑦ |⑤--⑥|
②口⑤⑧ |--⑦⑧|
39
①⑥②口 |-①--|
口口⑤④ |②-③-|
⑦⑧⑨⑩ |④⑤⑥-|
口口③口 |⑦⑧⑨⑩|
40
①⑥③③ |①②-③|
②⑥⑦口 |--④-|
口口⑧口 |⑤--⑥|
④口口⑤ |--⑦⑧|
41
⑦⑦⑧⑥ |-①--|
口⑨口⑤ |②-③-|
①口口④ |④⑤⑥-|
③口口② |⑦-⑧⑨|
42
⑥口口⑥ |①②-③|
⑦⑦口口 |--④-|
③口①④ |⑤--⑥|
⑤⑤②口 |--⑦-|
43
口⑥②口 |①-②-|
⑥⑧④② |③-④-|
⑧⑤①④ |⑤-⑥-|
口⑦③口 |⑦-⑧-|
44
③⑤口口 |--①-|
口口口① |--②-|
口口口① |③--④|
④口②口 |--⑤-|
45
口口口③ |--①-|
①口口口 |--②-|
①口口口 |③--④|
口②⑤④ |--⑤-|
46
③口②口 |--①-|
口口口① |--②-|
口口口① |③--④|
④⑤口口 |--⑤-|
47
⑧口口口 |①-②③|
⑥口⑦⑨ |④-⑤-|
④②口⑤ |⑥-⑦-|
口口③① |⑧-⑨-|
48
⑦⑦⑤⑤ |①-②-|
口②⑥口 |③-④-|
口⑧④口 |⑤-⑥-|
③③①① |⑦-⑧-|
49
⑦⑦⑤⑤ |①-②-|
②口⑥口 |③-④-|
⑧口口④ |⑤-⑥-|
③③①① |⑦-⑧-|
50
⑧⑧④④ |①-②-|
⑦口口③ |③-④-|
⑥口②② |⑤-⑥-|
⑤⑤口① |⑦-⑧-|
51
口口口口 |①-②-|
口②口① |③-④-|
口口口口
④口③口

⑩口⑤口
口⑫口⑨
⑥⑧⑪口 |⑤⑥⑦⑧|
口口口⑦ |⑨⑩⑪⑫|
52
⑥④②① |--①-|
①口②⑥ |--②-|
口口⑤① |③-④⑤|
①③③口 |--⑥-|
53
口③③① |--①-|
①⑤口⑦ |--②-|
口②口① |③-④⑤|
①②④⑥ |-⑥⑦-|
54
⑥④②① |--①-|
①口②⑥ |--②-|
口口⑤① |③-④⑤|
①③③口 |--⑥-|
55
口⑧⑥① |①-②③|
②④③⑨ |④-⑤-|
口⑦口⑤ |⑥-⑦-|
②⑤⑦⑧ |⑧-⑨-|
56
⑥④②① |--①-|
口①⑤⑥ |--②-|
口②①口 |③-④⑤|
①③③口 |--⑥-|
57
口口②① |--①-|
③①口⑦ |--②-|
口⑤①③ |③-④⑤|
①②④⑥ |-⑥⑦-|
58
①口③② |①-②-|
口口口口 |--③-|
①口口口
口口口口

⑤④口口
口口口⑤
口口口口 |--④-|
口口口口 |--⑤-|
59
口口口② |①-②-|
③口④口 |③-④-|
口①①③
②④口口

口⑤⑤口
口口口口
口⑦口口 |⑤-⑥-|
口口⑥口 |⑦---|
60
③口口① |①②-③|
④⑧口② |④-⑤-|
口⑨⑦⑦ |⑥--⑦|
⑥口口⑤ |--⑧⑨|
61
⑦口⑧① |-①--|
③⑥口⑧ |②-③-|
②口⑤口 |④⑤⑥⑦|
口口口④ |⑧---|
62
口⑥口口 |①②-③|
⑥④③口 |--④-|
①口口⑦ |⑤--⑥|
②口⑤⑧ |--⑦⑧|
63
①⑥②口 |-①--|
口口⑤④ |②-③-|
⑦⑧⑨⑩ |④⑤⑥-|
口口③口 |⑦⑧⑨⑩|
64
①⑥③③ |①②-③|
②⑥⑦口 |--④-|
口口⑧口 |⑤--⑥|
④口口⑤ |--⑦⑧|
65
⑦⑦⑧⑥ |-①--|
口⑨口⑤ |②-③-|
①口口④ |④⑤⑥-|
③口口② |⑦-⑧⑨|
66
⑥口口⑥ |①②-③|
⑦⑦口口 |--④-|
③口①④ |⑤--⑥|
⑤⑤②口 |--⑦-|
67
口⑥②口 |①-②-|
⑥⑧④② |③-④-|
⑧⑤①④ |⑤-⑥-|
口⑦③口 |⑦-⑧-|
68
③⑥②⑦ |①-②-|
⑥⑧④② |③-④-|
⑧⑤①④ |⑤-⑥-|
①⑦③⑤ |⑦-⑧-|
69
①②口口 |--①-|
口④③口 |--②③|
口⑥⑤口 |--④⑤|
口口⑦口 |--⑥⑦|

不確定度: 0

最終更新:2014年08月01日 23:00