灼熱の翼
マジックアカデミー管弦楽団×劇団レコード
ADVANCED
Level: 7
BPM: 166
Notes: 373
1
口口口口 |----|
口口口口 |----|
口口口口 |----|
口口口口 |----|
2
③口口④ |--①-|
⑤①口⑥ |②---|
口口②口 |③-④-|
口口口口 |⑤-⑥-|
3
口口口口 |--①-|
口口①口 |②---|
④②口③ |③-④-|
⑥口口⑤ |⑤-⑥-|
4
③口口④ |--①-|
⑤①口⑥ |②---|
口口②口 |③-④-|
口口口口 |⑤-⑥-|
5
⑤⑥④③ |--①-|
口口①口 |②---|
口②口口 |③-④-|
口口口口 |⑤-⑥-|
6
④口口⑤ |①-②-|
⑥②口⑦ |③---|
口口③口 |④-⑤-|
口口①口 |⑥-⑦-|
7
口口口口 |①-②-|
口口②口 |③---|
⑤③口④ |④-⑤-|
⑦①口⑥ |⑥-⑦-|
8
④口口⑤ |①-②-|
⑥②口⑦ |③---|
口口③口 |④-⑤-|
口口①口 |⑥-⑦-|
9
④口口口 |①-②-|
口⑤②口 |③---|
口③⑥口 |④-⑤-|
口①口⑦ |⑥-⑦-|
10
口口口口 |①---|
①口口② |----|
①口口② |②---|
口口口口 |----|
11
口口口口 |①---|
口①②口 |----|
口①②口 |②---|
口口口口 |----|
12
口口口口 |①---|
①口口② |----|
①口口② |②---|
口口口口 |----|
13
口③③口 |①-②-|
口口口口 |--③-|
口口②口 |----|
口①口口 |----|
14
口口③口 |----|
口②口口 |①-②-|
口④①口 |③-④-|
口⑤⑤口 |--⑤-|
15
口口①口 |----|
口②口口 |①-②-|
口口口口 |----|
口口口口 |----|
16
⑤③口⑤ |----|
口口②口 |①-②-|
口①④口 |③-④-|
口口口口 |--⑤-|
17
口口口口 |----|
口口口口 |----|
口口口口 |----|
口口口口 |----|
18
口口③口 |----|
口②口口 |①-②-|
口④①口 |③-④-|
口⑤⑤口 |--⑤-|
19
口口①口 |----|
口②口口 |①-②-|
口口口口 |----|
口口口口 |----|
20
口③④口 |----|
口口②口 |①-②-|
⑤①口⑤ |③-④-|
口口口口 |--⑤-|
21
④口口口 |--①-|
口口①口 |②---|
口口口口 |③---|
口②口③ |④---|
22
口④③① |①---|
口⑤②口 |②-③-|
口口口口 |④-⑤-|
⑥口口⑥ |--⑥-|
23
②口口② |--①-|
①口口① |②---|
口口口口 |----|
口口口口 |----|
24
口④③① |①---|
口④③① |②-③-|
⑤口口口 |--④-|
⑤②口口 |--⑤-|
25
②口口⑤ |--①-|
口④口⑤ |②-③-|
口口③口 |④-⑤-|
口口口① |----|
26
口③②口 |----|
口④①口 |①-②-|
口口口口 |③-④-|
⑤口口⑤ |--⑤-|
27
①口口① |----|
②口口② |①-②-|
口口口口 |----|
口口口口 |----|
28
口④口口 |----|
口口③口 |①-②-|
口②口口 |③-④-|
⑤口①⑤ |--⑤-|
29
③口口③ |--①-|
④口口④ |②---|
⑤①①⑤ |③--④|
口②②口 |--⑤-|
30
口③③口 |①---|
口口口口 |②---|
口④④口 |③---|
①②②① |④---|
31
口口口口 |①-②-|
口口⑤口 |③-④-|
④口口③ |⑤---|
②⑥口① |⑥---|
32
口④①口 |①---|
口口口口 |--②-|
口②⑤口 |③--④|
口口③口 |--⑤-|
33
口口口口 |①--②|
口口口口 |--③-|
口口口④ |④---|
③①口② |----|
34
口口口口 |①-②-|
①③③① |③-④-|
口口口口 |----|
②④④② |----|
35
①③③① |①-②-|
口口口口 |③-④-|
②④④② |----|
口口口口 |----|
36
口口口口 |①---|
口口口口 |----|
②②②② |②---|
①①①① |----|
37
①①①① |①---|
口口口口 |----|
口口口口 |----|
口口口口 |----|
38
口口口④ |----|
口口③④ |①---|
①②口口 |②-③-|
①口口口 |--④-|
39
口口口口 |----|
口口③口 |----|
口②口口 |--①-|
口①口口 |②-③-|
40
④口①③ |①--②|
口②口口 |--③-|
口口口口 |④---|
口口口口 |----|
41
口口口口 |----|
口③口口 |----|
口口②口 |--①-|
口口①口 |②-③-|
42
③①口④ |①--②|
口口②口 |--③-|
口口口口 |④---|
口口口口 |----|
43
③①①③ |①---|
口口口口 |②---|
④口口④ |③---|
口②②口 |--④-|
44
口口口口 |①---|
口口口口 |----|
口口口口 |----|
①口口① |----|
45
口③③口 |①---|
口口口口 |②---|
②④④② |③---|
①⑤⑤① |④-⑤-|
46
①②③口 |--①-|
口口④口 |②-③-|
口⑤口口 |④-⑤-|
口⑥口口 |--⑥-|
47
口口口口 |----|
口口③口 |----|
口②口口 |--①-|
口①口口 |②-③-|
48
④口①③ |①--②|
口②口口 |--③-|
口口口口 |④---|
口口口口 |----|
49
口口口口 |----|
口③口口 |----|
口口②口 |--①-|
口口①口 |②-③-|
50
③①口④ |①--②|
口口②口 |--③-|
口口口口 |④---|
口口口口 |----|
51
口口口口 |①---|
②③③① |②---|
②口口① |③---|
口④④口 |④---|
52
③①①③ |①---|
口口口口 |----|
②口口② |②--③|
④口口④ |--④-|
53
口口口口 |①---|
①口口① |----|
口口口口 |----|
口口口口 |----|
54
口口口口 |----|
口口口口 |----|
口口口口 |----|
口口口口 |----|
55
③口口④ |--①-|
⑤①口⑥ |②---|
口口②口 |③-④-|
口口口口 |⑤-⑥-|
56
口口口口 |--①-|
口口①口 |②---|
④②口③ |③-④-|
⑥口口⑤ |⑤-⑥-|
57
③口口④ |--①-|
⑤①口⑥ |②---|
口口②口 |③-④-|
口口口口 |⑤-⑥-|
58
⑤⑥④③ |--①-|
口口①口 |②---|
口②口口 |③-④-|
口口口口 |⑤-⑥-|
59
④口口⑤ |①-②-|
⑥②口⑦ |③---|
口口③口 |④-⑤-|
口口①口 |⑥-⑦-|
60
口口口口 |①-②-|
口口②口 |③---|
⑤③口④ |④-⑤-|
⑦①口⑥ |⑥-⑦-|
61
④口口⑤ |①-②-|
⑥②口⑦ |③---|
口口③口 |④-⑤-|
口口①口 |⑥-⑦-|
62
口口口口 |①-②-|
口口②口 |③---|
口③口口
口①口口
④口口⑥
口⑤⑦口
口口口口 |④-⑤-|
口口口口 |⑥-⑦-|
63
③③⑤⑤ |①-②-|
①口口② |--③-|
①口口② |④---|
⑥⑥④④ |⑤-⑥-|
64
口③③口 |--①-|
口①②口 |②---|
口①②口 |③---|
口④④口 |④---|
65
口口口口 |①---|
①口口① |----|
①口口① |----|
口口口口 |----|
66
口口口口 |①---|
①②②① |----|
①②②① |②---|
口口口口 |----|
67
口口口口 |①---|
①口口① |----|
口口口口 |----|
口口口口 |----|
68
口口口口 |①---|
口①①口 |----|
口①①口 |----|
口口口口 |----|
69
口口口口 |①---|
口②口口 |----|
口口①口 |-②--|
口口口口 |----|
不確定度: 0