ふしぎなくすり
上野圭市 feat. SATOE

BASIC

Level: 3
BPM: 162
Notes: 180

1
口口口口 |----|
口口口口 |----|
口口口口 |----|
口口口口 |----|
2
口口口口 |①---|
口口口口 |----|
口口口口 |②---|
口②①口 |----|
3
口口口口 |①---|
口口口口 |----|
口②①口 |②---|
口口口口 |----|
4
口口②口 |①---|
口口①口 |----|
口口口口 |②---|
口口口口 |----|
5
口口口① |①---|
口口口② |----|
口口口口 |②---|
口口口口 |----|
6
口②口口 |①---|
口①口口 |----|
口口口口 |②---|
口口口口 |----|
7
①口口口 |①---|
②口口口 |----|
口口口口 |②---|
口口口口 |----|
8
口口②口 |①---|
口口①口 |----|
口口口口 |②---|
口口口口 |----|
9
口口口① |①---|
口口口② |----|
口口口口 |②---|
口口口口 |----|
10
口②口口 |①---|
口①口口 |----|
口口口口 |②---|
口口口口 |----|
11
①口口口 |①---|
②口口口 |----|
口口口口 |②---|
口口口口 |----|
12
口口口口 |①---|
口口口口 |----|
口②①口 |②---|
口口口口 |----|
13
口口③口 |①---|
口口②口 |②---|
口口①口 |③---|
口口口口 |----|
14
口③口口 |①---|
口②口口 |②---|
口①口口 |③---|
口口口口 |----|
15
口口口口 |①---|
口口口口 |----|
口口②① |②---|
口口口口 |----|
16
口口口口 |①---|
口口口口 |----|
②①口口 |②---|
口口口口 |----|
17
口口口口 |①---|
口口口口 |----|
口①①口 |----|
口口口口 |----|
18
口口口口 |①---|
口①①口 |----|
口②②口 |②---|
口口口口 |----|
19
口口口口 |①---|
口口口口 |----|
口口口口 |②---|
口①②口 |----|
20
口③口口 |①---|
口②口口 |②---|
口①口口 |③---|
口口口口 |----|
21
口口③口 |①---|
口口②口 |②---|
口口①口 |③---|
口口口口 |----|
22
口口口口 |①---|
口口口口 |----|
①口口② |②---|
口口口口 |----|
23
口口口口 |①---|
口②②口 |----|
口①①口 |②---|
口口口口 |----|
24
口①①口 |①---|
口口口口 |----|
口口口口 |----|
口口口口 |----|
25
口口口口 |----|
口①①口 |----|
口口口口 |①---|
口口口口 |----|
26
口口口口 |①---|
②口口口 |----|
口①①口 |②---|
口口口口 |----|
27
口口口口 |①---|
口②②① |----|
口口口口 |②---|
口口口口 |----|
28
①口口② |①---|
口口口口 |----|
口口口口 |②---|
口口口口 |----|
29
口①①口 |①---|
口口口口 |----|
口口口口 |----|
口口口口 |----|
30
①口口口 |①---|
口②口口 |----|
口口口口 |②---|
口口口口 |----|
31
口口①口 |①---|
口口口② |----|
口口口口 |②---|
口口口口 |----|
32
口口口① |①---|
口口②口 |----|
口口口口 |②---|
口口口口 |----|
33
口①口口 |①---|
②口口口 |----|
口口口口 |②---|
口口口口 |----|
34
口口口口 |①---|
口口口口 |----|
口①②口 |②---|
口口口口 |----|
35
口口口口 |①---|
口①①口 |----|
口②②口 |②---|
口口口口 |----|
36
口口口口 |①---|
口口口口 |----|
口口口口 |②---|
口②①口 |----|
37
口口③口 |①---|
口口②口 |②---|
口口①口 |③---|
口口口口 |----|
38
口③口口 |①---|
口②口口 |②---|
口①口口 |③---|
口口口口 |----|
39
口口口口 |①---|
口口口口 |----|
②口口① |②---|
口口口口 |----|
40
口口口口 |①---|
口②②口 |----|
口①①口 |②---|
口口口口 |----|
41
口①①口 |①---|
口口口口 |----|
口口口口 |----|
口口口口 |----|
42
口①①口 |----|
口口口口 |----|
口口口口 |①---|
口口口口 |----|
43
口口口② |①---|
口①①口 |----|
口口口口 |②---|
口口口口 |----|
44
口口口口 |①---|
口口①口 |----|
口②口口 |②---|
口口口口 |----|
45
口口口口 |①---|
口口口口 |----|
口口口口 |②---|
①②口口 |----|
46
口口口口 |①---|
口口口口 |----|
口口口口 |②---|
口口①② |----|
47
口口口口 |①---|
口②口口 |----|
口口①口 |②---|
口口口口 |----|
48
①②口口 |①---|
口口口口 |----|
口口口口 |②---|
口口口口 |----|
49
口口①② |①---|
口口口口 |----|
口口口口 |②---|
口口口口 |----|
50
口②②口 |①---|
口口①口 |----|
口口口口 |②---|
口口口口 |----|
51
②口口口 |①---|
口①①口 |----|
口口口口 |②---|
口口口口 |----|
52
口口口口 |①---|
口①口口 |----|
口口②口 |②---|
口口口口 |----|
53
口口口口 |①---|
口口口口 |----|
口口口口 |②---|
口口②① |----|
54
口口口口 |①---|
口口口口 |----|
口口口口 |②---|
②①口口 |----|
55
口口口口 |①---|
口口②口 |----|
口①口口 |②---|
口口口口 |----|
56
口口②① |①---|
口口口口 |----|
口口口口 |②---|
口口口口 |----|
57
②①口口 |①---|
口口口口 |----|
口口口口 |②---|
口口口口 |----|
58
口口口口 |①---|
口①口口 |----|
口口②口 |②---|
口口口口 |----|
59
口口口口 |①---|
口口口口 |----|
口口口② |②---|
口口口① |----|
60
口②②口 |①---|
口口口① |----|
口口口口 |②---|
口口口口 |----|
61
口口口口 |①---|
口口口口 |----|
口②①口 |②---|
口口口口 |----|
62
口口③口 |①---|
口口②口 |②---|
口口①口 |③---|
口口口口 |----|
63
口③口口 |①---|
口②口口 |②---|
口①口口 |③---|
口口口口 |----|
64
口口口口 |①---|
口口口口 |----|
②口口① |②---|
口口口口 |----|
65
口口口口 |①---|
口②②口 |----|
口①①口 |②---|
口口口口 |----|
66
口①①口 |①---|
口口口口 |----|
口口口口 |----|
口口口口 |----|
67
口①①口 |①---|
口口口口 |----|
口口口口 |----|
口口口口 |----|
68
口口口口 |①---|
②口口① |----|
口口口口 |②---|
口口口口 |----|
69
口口口口 |①---|
口①①口 |----|
口②②口 |②---|
口口口口 |----|
70
口口②口 |①---|
口口①口 |----|
口口口口 |②---|
口口口口 |----|
71
口口口① |①---|
口口口② |----|
口口口口 |②---|
口口口口 |----|
72
口②口口 |①---|
口①口口 |----|
口口口口 |②---|
口口口口 |----|
73
①口口口 |①---|
②口口口 |----|
口口口口 |②---|
口口口口 |----|
74
口口②口 |①---|
口口①口 |----|
口口口口 |②---|
口口口口 |----|
75
口口口① |①---|
口口口② |----|
口口口口 |②---|
口口口口 |----|
76
口②口口 |①---|
口①口口 |----|
口口口口 |②---|
口口口口 |----|
77
①口口口 |①---|
②口口口 |----|
口口口口 |②---|
口口口口 |----|
78
口口口口 |①---|
口①①口 |----|
口口口口 |----|
口口口口 |----|


不確定度: 0

最終更新:2013年06月30日 19:55