neu
少年ラジオ

EXTREME

Level: 10
BPM: 199
Notes: 881

1
口口口口 |----|
口口口口 |----|
口口口口 |----|
口口口口 |----|
2
口口口口 |----|
口口口口 |----|
口口口口 |----|
口口口口 |----|
3
口口口口 |----|
口口口口 |----|
口口口口 |----|
口口口口 |----|
4
口口口口 |----|
口口口口 |----|
口口口口 |----|
口口口口 |----|
5
②口口② |①---|
口口口口 |----|
口①①口 |②---|
口口口口 |----|
6
口口口口 |①---|
①③③① |----|
②口口② |②---|
口口口口 |③---|
7
口②②口 |①---|
③口口③ |----|
口口口口 |②---|
口①①口 |③---|
8
口口口口 |①---|
口口口口 |----|
口①①口 |----|
②口口② |②---|
9
①口口① |①---|
口口口口 |----|
口口口口 |----|
口②②口 |②---|
10
②①①② |①---|
口③③口 |----|
口口口口 |②---|
口口口口 |③---|
11
口口口口 |①---|
口口口口 |②---|
①④④① |③---|
③②②③ |④---|
12
①①①① |①---|
口口口口 |----|
口口口口 |----|
口口口口 |----|
13
③口①② |①---|
③口③④ |②---|
口口口口 |③---|
口口口口 |④---|
14
口口口口 |①---|
口口口口 |②---|
④①①② |③---|
③①③④ |④---|
15
口口①② |①---|
①口③④ |②---|
口口口口 |③---|
③③口口 |④---|
16
①口口口 |①---|
②口口口 |②---|
③口①② |③---|
④口③④ |④---|
17
①①①② |①---|
口口③④ |②---|
口口口口 |③---|
④④口口 |④---|
18
①①口口 |①---|
口口口口 |②---|
口口①② |③---|
口④③④ |④---|
19
口①①② |①---|
③③③④ |②---|
口口口口 |③---|
口口口口 |④---|
20
口口口口 |①---|
③⑤④⑥ |②---|
①①①② |③-④-|
口口口口 |⑤-⑥-|
21
⑫⑬⑥⑤ |①-②③|
口⑭⑦⑪ |④-⑤⑥|
①口③② |⑦⑧⑨⑩|
⑧⑨④⑩ |⑪⑫⑬⑭|
22
口口⑤④ |①-②③|
口口⑥口 |④⑤⑥⑦|
②③口①
⑦口口口

⑪⑫口口
口口口口
口口⑭⑬ |⑧-⑨⑩|
口⑧⑩⑨ |⑪⑫⑬⑭|
23
⑫⑬③② |①-②③|
①口⑦⑥ |④⑤⑥⑦|
④⑤口⑭ |⑧⑨⑩⑪|
⑧⑨⑪⑩ |⑫⑬-⑭|
24
口口⑤① |①-②③|
②③⑦⑥ |④-⑤-|
口④⑧口 |⑥⑦⑧-|
⑨⑩⑪⑫ |⑨⑩⑪⑫|
25
②口口① |①-②-|
⑦⑧⑥⑤ |③④⑤⑥|
③④⑩⑨ |⑦⑧⑨⑩|
⑪⑫⑬⑭ |⑪⑫⑬⑭|
26
②③口① |①-②③|
⑨口⑤④ |④⑤⑥⑦|
⑦⑥口⑧ |⑧-⑨-|
⑩⑪⑫⑬ |⑩⑪⑫⑬|
27
②③口① |①-②③|
⑨⑩⑤④ |④⑤⑥⑦|
⑦⑥口⑧ |⑧-⑨⑩|
⑪⑫⑬⑭ |⑪⑫⑬⑭|
28
①②③口 |①-②-③-|
口⑨⑧⑦ |④-⑤-⑥-|
⑥⑤④口 |⑦-⑧-⑨-|
口⑩⑪⑫ |⑩-⑪-⑫-|
29
①①①① |----|
③③③③ |①---|
口②②口 |--②-|
口口口口 |③---|
30
①②口口 |----|
口口口口 |----|
①②口口 |①---|
口口口口 |②---|
31
口口①口 |①---|
口④③② |②---|
口口①口 |③---|
口④③② |④---|
32
①①①① |①---|
口口口口 |----|
口口口口
口口口口

④口口口
③口口口
②②②② |②---|
口口口口 |③-④-|
33
口②④口 |①-②-|
口①③口 |③-④-|
口⑥⑥口 |⑤---|
口⑤⑤口 |⑥---|
34
②②②② |①---|
①口口① |②---|
口口口口 |----|
口口口口 |----|
35
③③③③ |①---|
口口口口 |----|
②②②② |②---|
①①①① |③---|
36
口口口口 |----|
①②口口 |----|
口口口口 |①---|
①②口口 |②---|
37
口口口口 |①---|
口口①② |②---|
口口口口
口口①②

口口③口
口口④口
口口③口 |③---|
口口④口 |--④-|
38
口③③① |①---|
口口口口 |----|
口②②① |②---|
口口口口 |③---|
39
口口口口 |----|
口口口口 |----|
口口口口 |----|
口口口口 |----|
40
口口口口 |----|
口口口口 |----|
口口口口 |----|
口口口口 |----|
41
①①①① |①---|
③③③③ |----|
口口口口 |②---|
口②②口 |③---|
42
①②口口 |----|
口口口口 |----|
①②口口 |①---|
口口口口 |②---|
43
口口①口 |①---|
口④③② |②---|
口口①口 |③---|
口④③② |④---|
44
①①①① |①---|
③③③③ |----|
口②②口 |②---|
口口口口 |③---|
45
口口口口 |----|
口口口口 |----|
口口口口 |----|
口口口口 |----|
46
口口口口 |----|
口口口口 |----|
①口口口 |----|
口口口口 |①---|
47
②口口③ |①---|
口口口口 |----|
口口口① |②---|
口口口口 |③---|
48
口口口口 |----|
口口口口 |----|
口口口口 |----|
口口口口 |----|
49
口口口口 |----|
口口口口 |----|
口口口口 |----|
口口口口 |----|
50
口口口口 |①---|
②口口③ |----|
口口口口 |②---|
口口①口 |③---|
51
口口口口 |----|
口口口口 |----|
口口口口 |----|
口口口口 |----|
52
口口口口 |----|
④口口⑤ |--①-|
②口口③ |②-③-|
口口口① |④-⑤-|
53
口口口④ |①---|
口口③口 |--②-|
口②②④ |--③-|
口①①口 |④---|
54
③③口口 |--①-|
①口口口 |----|
②②口口 |②---|
①口口口 |③---|
55
口口口③ |①---|
⑤口口② |②-③-|
④口口③ |--④-|
⑤口①① |⑤---|
56
口口⑤⑤ |①-②-|
口③口口 |--③-|
口①②口 |④---|
口②④④ |⑤---|
57
口口口口 |①---|
①③口口 |②-③-|
口②④⑤ |--④-|
①③⑤口 |⑤---|
58
⑤⑤②② |①-②-|
口口①③ |--③-|
口口口口 |④---|
④④口口 |⑤---|
59
⑥⑧③① |①-②-|
②④⑦⑤ |③-④-|
口口口① |⑤-⑥-|
口④口⑦ |⑦-⑧-|
60
口⑤⑤① |①-②-|
③口口口 |--③-|
口口②② |④---|
口④④口 |⑤---|
61
③口⑧④ |①-②-|
口⑤口② |③-④-|
①①④口 |⑤-⑥-|
⑦⑦口⑥ |⑦-⑧-|
62
口口⑥⑥ |①-②-|
③口④② |③-④-|
口①口② |⑤---|
口口⑤⑤ |⑥---|
63
⑤①口口 |①-②-|
③口④口 |③-④-|
⑦①⑧② |⑤-⑥-|
口⑦④⑥ |⑦-⑧-|
64
⑥⑥②口 |①-②-|
③①口② |③-④-|
口⑤口口 |⑤---|
⑤口④口 |⑥---|
65
口口口⑦ |①-②-|
⑤②④⑧ |③-④-|
①口⑦③ |⑤-⑥-|
⑥①口④ |⑦-⑧-|
66
②①口⑥ |①-②-|
⑤口④口 |③-④-|
口②口⑥ |⑤---|
⑤口口③ |⑥---|
67
④②口口 |①-②-|
口①⑥⑤ |③-④-|
③④口口 |⑤-⑥-|
口①⑧⑦ |⑦-⑧-|
68
口③③① |①-②-|
口口口口 |----|
口口②① |③---|
口④④口 |④---|
69
口④口⑤ |①---|
①①①① |②-③-④-|
⑧③⑦② |⑤---|
⑥⑥口⑥ |⑥-⑦-⑧-|
70
口④口⑤ |①---|
①①口① |②-③-④-|
口③口② |⑤---|
口口口⑥ |⑥---|
71
④口口⑤ |①---|
①①⑧① |②-③-④-|
③⑥⑦② |⑤---|
⑥口口⑥ |⑥-⑦-⑧-|
72
④①口⑤ |①---|
①口口① |②-③-④-|
③口口② |⑤---|
口口口⑥ |⑥---|
73
口④口口 |①---|
①①①① |②-③-④-|
③口口②
口口口口

⑥口口⑤
口口⑧口
口⑥⑦口 |⑤---|
口口口⑥ |⑥-⑦-⑧-|
74
口④口⑤ |①---|
⑥①口① |②-③-④-|
③⑥口② |⑤---|
①口口⑥ |⑥---|
75
⑦口口⑧ |①-②-|
口⑤⑥口 |③-④-|
③口口④ |⑤-⑥-|
口①②口 |⑦-⑧-|
76
口口口口 |①---|
①口口① |②-③-④-|
④③②口
口口口口

口⑩口口
口⑨口⑫
口口口⑪ |⑤⑥⑦⑧|
⑤⑥⑦⑧ |⑨⑩⑪⑫|
77
口口③② |①-②③|
①口④口 |④-⑤⑥|
⑥口口口
⑤口口口

⑭口口口
⑬口口⑫
口⑩⑧口 |⑦⑧⑨⑩|
口⑨⑦⑪ |⑪⑫⑬⑭|
78
⑬⑨③② |①-②③|
⑭⑩⑧⑫ |④⑤⑥⑦|
⑤口⑦① |⑧-⑨⑩|
④口⑥⑪ |⑪⑫⑬⑭|
79
口⑩⑧① |①-②③|
⑭⑪⑨口 |④⑤⑥⑦|
⑦⑥⑤④ |⑧⑨⑩⑪|
②③⑬⑫ |⑫⑬-⑭|
80
①口⑥② |①-②③|
口口⑦③ |④-⑤-|
⑨⑩⑧④ |⑥⑦⑧-|
⑤口⑪⑫ |⑨⑩⑪⑫|
81
①口口② |①-②-|
③④⑥⑤ |③④⑤⑥|
⑪⑫⑨⑩ |⑦⑧⑨⑩|
⑦⑧⑬⑭ |⑪⑫⑬⑭|
82
②③⑨① |①-②③|
④⑤⑥⑦ |④⑤⑥⑦|
⑩⑪⑫⑬ |⑧-⑨-|
⑧口口口 |⑩⑪⑫⑬|
83
①口⑩⑨ |①-②③|
④⑤⑥⑦ |④⑤⑥⑦|
⑪⑫⑬⑭ |⑧-⑨⑩|
⑧口③② |⑪⑫⑬⑭|
84
①口⑩⑪ |①-②③|
④⑤⑥⑦ |④⑤⑥⑦|
⑫⑬⑭⑮ |⑧⑨⑩⑪|
⑧⑨③② |⑫⑬⑭⑮|
85
①②⑪⑩ |①②③④|
⑤⑥⑦⑧ |⑤⑥⑦⑧|
⑫⑬口口 |⑨-⑩⑪|
⑨⑭③④ |⑫⑬⑭-|
86
④③口⑨ |①②③④|
⑧⑦⑬⑫ |⑤⑥⑦⑧|
⑩⑪②① |⑨-⑩⑪|
⑭口⑥⑤ |⑫⑬⑭-|
87
②①口口 |①②③④|
⑧⑦口口 |⑤⑥⑦⑧|
口口④③
口口⑥⑤

口⑭口⑨
口口⑬⑫
⑩⑪口口 |⑨-⑩⑪|
口口口口 |⑫⑬⑭-|
88
⑨口口⑨ |①②③④|
⑧⑦⑩口 |⑤⑥⑦⑧|
口⑩③④ |⑨---|
①②⑥⑤ |⑩---|
89
口口口口 |①---|
③②③② |--②-|
②③②口 |----|
①①口口 |③---|
90
口③③口 |①---|
口②口② |②---|
②④②⑤ |③---|
④①①⑤ |④-⑤-|
91
①③③② |①---|
①口口② |②---|
口口口口 |③---|
④口口④ |④---|
92
口口口口 |①-②③|
口口⑥⑦ |④⑤⑥⑦|
④⑤①③
口②①口

⑫⑬⑩⑪
⑧⑨口口
口口口口 |⑧⑨⑩⑪|
口口⑭⑮ |⑫⑬⑭⑮|
93
⑬⑭⑪⑫ |①②③④|
⑨⑩⑦⑧ |⑤⑥⑦⑧|
⑤⑥③④ |⑨⑩⑪⑫|
①②⑮⑯ |⑬⑭⑮⑯|
94
⑭⑬⑫⑪ |①②③④|
⑩⑨⑧⑦ |⑤⑥⑦⑧|
⑥⑤④③ |⑨⑩⑪⑫|
②①⑯⑮ |⑬⑭⑮⑯|
95
口口口口 |①-②-|
⑥⑤口口 |③④⑤⑥|
口②④③
①口口口

⑩⑨⑫⑪
口口⑧⑦
口口口口 |⑦⑧⑨⑩|
⑭⑬口口 |⑪⑫⑬⑭|
96
⑪⑫⑬⑭ |①②③④|
⑦⑧⑨⑩ |⑤⑥⑦⑧|
③④⑤⑥ |⑨⑩⑪⑫|
⑮⑯①② |⑬⑭⑮⑯|
97
⑪⑫⑬⑭ |--①②|
⑦⑧⑨⑩ |③④⑤⑥|
③④①② |⑦⑧⑨⑩|
口口⑤⑥ |⑪⑫⑬⑭|
98
⑪⑫⑬⑭ |①-②③|
⑧口⑨⑩ |④⑤⑥⑦|
④⑤②③ |⑧-⑨⑩|
①口⑥⑦ |⑪⑫⑬⑭|
99
⑬⑭⑮⑯ |①②③④|
⑨⑩⑪⑫ |⑤⑥⑦⑧|
⑤⑥③④ |⑨⑩⑪⑫|
①②⑦⑧ |⑬⑭⑮⑯|
100
④口④口 |①---|
口口口口 |②---|
口③①③ |③---|
③②③口 |④---|
101
口口口口 |①---|
口①口① |----|
①口①口 |----|
口口口口 |----|


不確定度: 0

最終更新:2014年02月17日 17:54