少年は空を辿る
Power Of Nature

EXTREME

Level: 10
BPM: 140
Notes: 1019

1
口口口口 |----|
口口口口 |----|
口口口口 |----|
口口口口 |----|
2
⑩⑧⑦⑨ |①②③④|
⑫⑥⑤⑪ |⑤⑥⑦⑧|
⑭④③⑬ |⑨⑩⑪⑫|
⑯②①⑮ |⑬⑭⑮⑯|
3
⑩⑧⑦⑨ |①②③④|
⑫⑥⑤⑪ |⑤⑥⑦⑧|
⑭④③⑬ |⑨⑩⑪⑫|
⑯②①⑮ |⑬⑭⑮⑯|
4
②口口④ |-①--|
口②④口 |②---|
口口口口 |-③--|
口③①口 |④---|
5
②口口④ |-①--|
口口口口 |②---|
②口口④ |-③--|
口③①口 |④---|
6
口②④口 |-①--|
口口口口 |②---|
②口口④ |-③--|
③③①① |④---|
7
②口口② |①②-③|
①④③① |④-⑤⑥|
⑥口口⑥
⑤口口⑤

口⑩⑩口
⑨⑫⑪⑨
口⑦⑧口 |-⑦⑧⑨|
口口口口 |⑩-⑪⑫|
8
⑥口口⑥ |-①②③|
⑤口口⑤ |④⑤⑥-|
②③④②
口①①口

口口口口
口⑧⑦口
⑩⑪⑫⑩ |⑦⑧-⑨|
⑨口口⑨ |⑩-⑪⑫|
9
口②口③ |①-②-|
②口④① |-③-④|
口口口口
口①口③

口⑥口口
口⑦口口
⑦口口⑤ |-⑤--|
⑥口口口 |⑥⑦|
10
口口口③ |①-②-|
①口④② |-③-④|
口①口③
口口④②

口⑤口口
口口口口
⑤⑦口口 |-⑤--|
口口口⑥ |⑥⑦|
11
口口①口 |①---|
口口口① |②---|
口口口口 |③---|
②③④口 |④---|
12
口口口口 |①②③④|
④口口口
③口口②
口口口①
13
口⑧口⑥ |①②③④|
口⑦②⑤ |⑤⑥⑦⑧|
口④①口
口③口口

⑯口口口
⑮口⑭口
⑫口⑬⑩ |⑨⑩⑪⑫|
⑪口口⑨ |⑬⑭⑮⑯|
14
口④口② |①②③④|
口③⑧① |⑤⑥⑦⑧|
口口⑦⑥
口口口⑤

口⑯口⑭
⑫⑮口⑬
⑪⑩口口 |⑨⑩⑪⑫|
口⑨口口 |⑬⑭⑮⑯|
15
③口口④ |①---|
口口口③ |②---|
口口①② |③---|
口口口① |④---|
16
⑥④口⑥ |①-②-|
口①⑤④ |③---|
④⑥⑥③ |④-⑤-|
①口②① |⑥---|
17
口口口口 |①---|
口口口口 |②---|
口口口②
口口口①

口口口④
口口口③
口口⑤口 |③---|
口口口④ |④-⑤-|
18
②口口口 |①-②-|
③①⑦口 |③-④-|
④⑥口口 |⑤-⑥-|
⑤口口口 |⑦-|
19
口口③① |①---|
口口口② |②---|
口③口③ |③---|
⑤口①④ |④-⑤-|
20
口口口① |①---|
口①①② |②---|
口口①口
口口口口

③口③口
口④口口
④③④③ |③---|
口④口④ |④---|
21
口口口① |①---|
口口口② |②---|
口口口③ |③---|
口口⑤④ |④-⑤-|
22
口⑦⑥口 |①-②-|
⑤④口口 |③-④-|
②①③口 |⑤-⑥-|
口口口口 |⑦-|
23
②口口① |①-②-|
口③③口 |-③-④|
口②①④
口口口④

口⑦⑦口
⑥⑧⑧⑥
⑤口口口 |-⑤--|
⑤口口口 |⑥-⑦⑧|
24
口口口④ |①-②-|
口口口④ |-③-④|
③①①②
③口口②

⑦⑦⑥口
⑧⑧⑤口
口口口⑥ |--⑤-|
口口⑤口 |⑥-⑦⑧|
25
口口口⑤ |①②③④|
口口⑦⑤ |⑤-⑥⑦|
④口②⑥
口③口①

口口⑮口
⑨口口⑭
⑬⑧⑪口 |⑧⑨⑩⑪|
口⑫口⑩ |⑫⑬⑭⑮|
26
②口口口 |①②③④|
⑥①④口 |⑤⑥⑦⑧|
口⑤⑧③
口口口⑦

口口⑫口
口⑪口口
⑩口口口 |⑨⑩⑪⑫|
口⑨口口
27
⑥⑦口口 |①②③④|
⑥口口① |⑤-⑥⑦|
口③口⑤
②口④口

口口口⑨
口⑪⑧⑬
⑩⑮⑫口 |⑧⑨⑩⑪|
⑭口口口 |⑫⑬⑭⑮|
28
口④⑦⑥ |①②③④|
③⑧⑤⑫ |⑤⑥⑦⑧|
⑨口⑪② |⑨⑩⑪⑫|
口⑩①口
29
①②⑦⑥ |①②③④|
③口④⑧ |⑤-⑥⑦|
口⑤⑨⑨ |--⑧-|
口口⑧口 |⑨-|
30
①②⑦⑥ |①②③④|
③④口口 |⑤-⑥⑦|
⑤口口口 |--⑧-|
⑨⑧口⑧ |⑨-|
31
⑥⑦口口 |①②③④|
口②①口 |⑤-⑥⑦|
口④③口
口口⑤口

口口口口
口口⑨口
⑪口口口 |--⑧⑨|
口⑩口⑧ |⑩⑪|
32
口⑦②口 |①②③④|
⑥①口③ |⑤⑥⑦⑧|
口⑤④⑧
口口⑧口

⑨口口⑫
口⑩⑪口
⑬口口口 |---⑨⑩⑪|
口口口口 |⑫-⑬-|
33
口口口口 |①-②-|
③口口口 |③---|
口③①②
①①②①

④口⑤④
⑧⑥⑦④
④⑧⑨口 |④-⑤-|
口口口口 |⑥⑦⑧⑨|
34
口口口口 |①-②-|
口口口口 |③---|
口口口②
①①③③
35
①⑦口① |①---|
⑥①①口 |②-③-|
⑤口口② |④-⑤-|
口④③口 |⑥-⑦-|
36
口⑧①口 |①-②-|
⑦口口② |③-④-|
⑥口口③ |⑤-⑥-|
口⑤④口 |⑦-⑧-|
37
口口①口 |①-②-|
口口口② |③-④-|
口口口③
口口④口

口⑩⑦口
⑩口⑦口
⑧⑥⑨口 |⑤-⑥-⑦--⑧|
⑧⑤口⑨ |-⑨⑩-|
38
⑧⑯⑭② |①②③④|
⑫④⑥⑩ |⑤⑥⑦⑧|
⑦⑮⑬① |⑨⑩⑪⑫|
⑪③⑤⑨ |⑬⑭⑮⑯|
39
口口口② |①②③④|
口④口口 |⑤⑥⑦⑧|
⑥口⑧①
⑤③⑦口

⑭⑭⑮口
⑬⑬⑫⑪
口⑩口口 |⑨-⑩-⑪--⑫|
口口口⑨ |-⑬⑭⑮|
40
口口口④ |①②③④|
口口口⑥ |⑤⑥⑦⑧|
②⑧口③
①⑦⑤口

⑫口⑭口
⑯⑪⑬口
口口⑩口 |⑨⑩⑪⑫|
⑮口口⑨ |⑬⑭⑮⑯|
41
⑧④口② |①②③④|
口口口① |⑤⑥⑦⑧|
⑦③⑥口
口口⑤口

口⑮⑭⑭
⑪⑫⑬⑬
口口口⑩ |⑨-⑩-⑪--⑫|
口口口⑨ |-⑬⑭⑮|
42
⑧口口口 |①②③④|
⑥⑦口口 |⑤⑥⑦⑧|
⑤④口口
①②③口

口口⑫口
口口⑬⑪
口口⑭⑩ |⑨⑩⑪-|
口口⑮⑨ |⑫⑬⑭⑮--|
43
口口口⑦ |①②③④|
②④口⑤ |⑤⑥⑦⑧|
⑧口口口
①⑥口③

⑭⑭⑮口
⑬⑬⑨口
口⑩⑫⑪ |⑨-⑩-⑪--⑫|
口口口口 |-⑬⑭⑮|
44
口口口口 |①②③④|
口口口④ |⑤⑥⑦⑧|
③⑦⑧口
①⑤⑥②

⑯口⑭⑩
⑫口⑬口
⑮口口⑨ |⑨⑩⑪⑫|
⑪口口口 |⑬⑭⑮⑯|
45
口⑤口口 |①②③④|
⑦②口④ |⑤⑥⑦⑧|
口口⑥⑧
口①口③

口口⑭⑭
口口⑬⑬
⑪⑫口口 |⑨-⑩-⑪--⑫|
⑨口⑩口 |-⑬⑭-|
46
③口口口 |①-②-|
口②口口 |-③-④|
口④①口
③②口①

口口⑥口
口口⑦口
⑤口口⑦ |-⑤--|
口口口⑥ |⑥⑦|
47
③口口口 |①-②-|
②④口① |-③-④|
③口①口
②④口口

口口⑤口
口口口口
口口⑦⑤ |-⑤--|
⑥口口口 |⑥⑦|
48
口①⑦口 |①---|
①口口口 |②-③-|
口口⑦⑥ |④-⑤-|
⑤④③② |⑥-⑦-|
49
口口⑧⑦ |①-②-|
⑥⑤④③ |③-④-|
②①口口 |⑤-⑥-|
口⑤口口 |⑦-⑧-|
50
①⑤⑦口 |①-②-|
⑥②⑧⑦ |③-④-|
⑦③口⑧ |⑤-⑥-|
④⑧口口 |⑦-⑧-|
51
①⑤口口 |①-②-|
⑥②口口 |③-④-|
⑦③①⑤ |⑤-⑥-|
④⑧⑤① |⑦-⑧-|
52
①⑤口口 |①-②-|
⑥②⑦⑦ |③-④-|
⑦③①口 |⑤-⑥-|
④⑧口① |⑦-⑧-|
53
①⑤⑤口 |①-②-|
⑥②口⑤ |③-④-|
⑦③①① |⑤-⑥-|
④⑧口口 |⑦-⑧-|
54
口口口① |①-②-|
口①②口 |③-④-|
口口③①
口口口④

⑦⑧⑤口
口口口⑥
⑧⑦口⑦ |⑤-⑥-|
口口⑧口 |⑦-⑧-|
55
口口⑤① |①-②-|
①⑤②⑥ |③-④-|
口口③⑦ |⑤-⑥-|
⑤①⑧④ |⑦-⑧-|
56
口口口① |①-②-|
①口②口 |③-④-|
口口③口
口①口④

口口⑤口
⑧口口⑦
⑥口口⑨ |⑤⑥⑦⑧|
口口⑩口 |⑨-⑩-|
57
口②口① |①②③④|
⑧①③口 |⑤⑥⑦⑧|
④口⑤口
①⑥口⑦

⑩口⑨口
口口口⑪
⑭⑫口⑬ |⑨⑩⑪⑫|
⑯口⑮口 |⑬⑭⑮⑯|
58
⑧⑦⑥⑤ |①-②-③-|
④口③口 |④-⑤⑥⑦⑧|
口口口口
口②口①

口口口口
口⑩口⑨
⑫口⑪口 |⑨-⑩-⑪-|
⑯⑮⑭⑬ |⑫-⑬⑭⑮⑯|
59
④口②口 |①-②-③-|
⑧⑦⑥⑤ |④-⑤⑥⑦⑧|
口③口①
口口口口

口⑪口⑨
口口口口
⑯⑮⑭⑬ |⑨-⑩-⑪-|
⑫口⑩口 |⑫-⑬⑭⑮⑯|
60
⑧⑦⑥⑤ |①-②-③-|
④口②口 |④-⑤⑥⑦⑧|
口口口口
口③口①

口口口口
口⑪口⑨
⑫口⑩口 |⑨-⑩-⑪-|
⑯⑮⑭⑬ |⑫-⑬⑭⑮⑯|
61
④口②口 |①-②-③-|
⑧⑦⑥⑤ |④-⑤⑥⑦⑧|
口③口①
口口口口

口⑪口⑨
口口口口
⑯⑮⑭⑬ |⑨-⑩-⑪-|
⑫口⑩口 |⑫-⑬⑭⑮⑯|
62
⑤⑥⑦⑧ |①-②-③-|
④口②口 |④-⑤⑥⑦⑧|
口口口口
口③④①

口口口口
口⑪⑫⑨
⑫口⑩口 |⑨-⑩-⑪-|
⑬⑭⑮⑯ |⑫-⑬⑭⑮⑯|
63
④①②口 |①-②-③-|
⑤⑥⑦⑧ |④-⑤⑥⑦⑧|
口③④①
口口口口

口⑪口⑨
口口口口
⑬⑭⑮⑯ |⑨-⑩-⑪-|
⑫⑨⑩口 |⑫-⑬⑭⑮⑯|
64
④口②口 |①-②-③-|
⑤⑥⑦⑧ |④-⑤⑥⑦⑧|
口口口口
口③口①

口⑪⑫⑨
口口口口
⑬⑭⑮⑯ |⑨-⑩-⑪-|
⑫口⑩口 |⑫-⑬⑭⑮⑯|
65
⑦⑧口口 |①②③④|
①②③口 |⑤⑥⑦⑧|
口口口口
口⑥⑤④

口口⑨口
⑬⑭⑮⑯
口⑫⑪⑩ |⑨⑩⑪⑫|
口口口口 |⑬⑭⑮⑯|
66
①③⑤⑦ |①②③④|
口口口口 |⑤⑥⑦⑧|
口口口口
②④⑥⑧

口口口口
⑨⑩⑭⑬
口口⑪⑫ |⑨⑩⑪⑫|
⑯⑮口口 |⑬⑭⑮⑯|
67
口③②① |①②③④|
口口口口 |⑤⑥⑦⑧|
④⑤⑥⑧
口口口⑦

口口口口
⑩⑪⑫⑨
⑭⑮⑯口 |⑨⑩⑪⑫|
⑬口口口 |⑬⑭⑮⑯|
68
⑦⑤③① |①②③④|
⑨⑩⑭⑬ |⑤⑥⑦⑧|
⑯⑮⑪⑫ |⑨⑩⑪⑫|
⑧⑥④② |⑬⑭⑮⑯|
69
口③②① |①②③④|
口口口口 |⑤⑥⑦⑧|
口口口⑧
④⑤⑥⑦

口⑭⑬口
⑩⑪⑫⑨
口⑯⑮口 |⑨⑩⑪⑫|
口口口口 |⑬⑭⑮⑯|
70
②⑬⑨① |①②③④|
④⑭⑩③ |⑤⑥⑦⑧|
⑥⑪⑮⑤ |⑨⑩⑪⑫|
⑧⑫⑯⑦ |⑬⑭⑮⑯|
71
③⑫⑯⑥ |①②③④|
②⑪⑮⑤ |⑤⑥⑦⑧|
①⑩⑭④ |⑨⑩⑪⑫|
⑦⑧⑬⑨ |⑬⑭⑮⑯|
72
①⑨⑬② |①②③④|
③⑩⑭④ |⑤⑥⑦⑧|
⑤⑮⑪⑥ |⑨⑩⑪⑫|
⑦⑯⑫⑧ |⑬⑭⑮⑯|
73
①⑤⑦口 |①-②-|
②⑥⑧⑦ |③-④-|
③⑦⑧口 |⑤-⑥-|
④⑧口口 |⑦-⑧-|
74
①⑤口口 |①-②-|
②⑥⑤⑤ |③-④-|
③⑦口① |⑤-⑥-|
④⑧①口 |⑦-⑧-|
75
①口口口 |①-②-|
②口口口 |③-④-|
③口①①
④口口口

口⑤口⑦
口⑥口口
口⑦口⑦ |⑤-⑥-|
口⑧口口 |⑦-⑧-|
76
①⑤①口 |①-②-|
②⑥口⑤ |③-④-|
③⑦①口 |⑤-⑥-|
④⑧⑤口 |⑦-⑧-|
77
①⑤口⑦ |①-②-|
②⑥口⑧ |③-④-|
③⑦口口 |⑤-⑥-|
④⑧口口 |⑦-⑧-|
78
①⑤口口 |①-②-|
②⑥口⑤ |③-④-|
③⑦①口 |⑤-⑥-|
④⑧口① |⑦-⑧-|
79
①⑤口口 |①-②-|
②⑥口⑦ |③-④-|
③⑦①口 |⑤-⑥-|
④⑧口口 |⑦-⑧-|
80
①⑤口口 |①-②-|
②⑥口口 |③-④-|
③⑦口口 |⑤-⑥-|
④⑧①⑤ |⑦-⑧-|

不確定度: 0

最終更新:2014年03月16日 15:33