サヨナラ・ヘヴン
猫叉Master

EXTREME

Level: 9
BPM: 111
Notes: 686

1
口口口口 |----|
口口②口 |----|
口口口口 |----|
①口口口 |①-②-|
2
口口口② |①--②|
①口口口 |③-④⑤⑥---|
③口口口
口⑥⑤④

⑧口口口
口口⑨⑦
⑩⑪⑫口 |⑦--⑧|
口口口口 |⑨-⑩⑪⑫---|
3
口口口② |①--②|
①③⑨⑦ |③-④⑤⑥---|
口口口口 |⑦---|
⑧⑥⑤④ |⑧-⑨-|
4
口口口② |①--②|
①口口口 |③-④⑤⑥---|
③口口口
口⑥⑤④

口口口⑨
口⑧口口
⑩口⑦口 |⑦-⑧-|
口口口口 |⑨-⑩-|
5
口②③口 |①-②-|
口口⑦口 |③-④-|
口⑤⑤口 |⑤---|
⑥①④口 |⑥-⑦-|
6
口口口② |①--②|
①口口口 |③-④⑤⑥---|
③口口口
口⑥⑤④

⑧口口口
口口⑨⑦
⑩⑪⑫口 |⑦--⑧|
口口口口 |⑨-⑩⑪⑫---|
7
口口口② |①--②|
①③⑨⑦ |③-④⑤⑥---|
口口口口 |⑦---|
⑧⑥⑤④ |⑧-⑨-|
8
口口口② |①--②|
①口口口 |③-④⑤⑥---|
③口口口
口⑥⑤④

口口⑨口
⑧⑧口⑨
⑩⑦⑦口 |⑦-⑧-|
口⑩口口 |⑨-⑩-|
9
①⑦⑧① |①-②③|
口②③口 |④-⑤-|
口口⑥⑩ |⑥-⑦⑧|
④⑨口⑤ |⑨-⑩-|
10
口口口口 |①-②③|
口①口口 |④-⑤-|
口②③口
④口口⑤

口口⑥口
口⑪⑦⑥
⑧⑨⑩口 |⑥---⑦-⑧⑨|
口口⑬⑫ |⑩---⑪-⑫⑬|
11
口②③口 |①-②③|
口口口口 |④-⑤-|
④口口⑤
口①口口

⑩口口口
口⑦⑧口
口口⑫⑪ |⑥-⑦⑧|
⑥⑨口⑥ |⑨---⑩-⑪⑫|
12
口口②② |①-②-|
③③口口 |③-④-|
口①口口
④口口④

⑤⑤口口
口口⑥⑥
⑦⑧⑨口 |⑤---⑥-⑦⑧|
口⑩⑩口 |⑨-⑩-|
13
①⑩⑩① |①-②③|
⑪②③⑨ |④---⑤-⑥⑦|
⑥⑦⑧口 |⑧-⑨-|
④口口⑤ |⑩-⑪-|
14
口口口口 |①-②③|
口②③口 |④-⑤-|
口口口口
④①①⑤

口⑥口口
⑥⑦口⑪
口⑩⑨⑧ |⑥---⑦-⑧⑨|
⑫⑬口口 |⑩---⑪-⑫⑬|
15
口口口口 |①-②③|
口②③口 |④-⑤-|
④口口⑤
口口①口

口⑨⑨口
⑧口口⑦
口⑩⑩口 |⑥-⑦⑧|
口⑥⑥口 |⑨-⑩-|
16
③④④② |①-②-|
口口口口 |③-④-|
③口口②
口①①口

口口⑧口
口⑨口口
口⑥⑦口 |⑤--⑥|
⑤⑥⑦⑤ |⑦-⑧⑨|
17
⑤口口⑥ |①--②|
③口口② |--③-|
①口口口 |④-⑤-|
⑥口④⑦ |⑥-⑦-|
18
口口④口 |①-②-|
口③口口 |③-④-|
口①②口
口口口口

口口⑦口
口口口⑦
⑤口口口 |⑤---|
口口口⑥ |⑥-⑦-|
19
③①口② |①---|
①⑤④口 |--②-|
口②③口 |③--④|
④口口⑤ |--⑤-|
20
口①④⑥ |①--②|
①口⑦④ |--③-|
③口口② |④---|
⑤③②⑤ |⑤-⑥⑦|
21
⑤口口⑥ |①--②|
③口口② |--③-|
口①口口 |④-⑤-|
⑥口④⑦ |⑥-⑦-|
22
口⑦④口 |①-②-|
⑦③口口 |③-④-|
⑤①②口 |⑤---|
口口口⑥ |⑥-⑦-|
23
口口①③ |①---|
口②口① |②-③-|
口③口口
口口口口

④口口口
口⑥⑤口
口口④口 |④--⑤|
⑤口口⑥ |--⑥-|
24
口①口口 |①--②|
①口口口 |--③-|
③口口②
口③②口

口口④口
口⑤⑥④
口⑤⑥口 |④--⑤|
⑦⑧⑨口 |⑥--⑦⑧⑨|
25
⑤③④⑥ |①--②|
②⑦口② |--③-|
③口⑧④ |④-⑤-|
口口口① |⑥-⑦⑧|
26
⑥④③⑤ |①--②|
④口⑦③ |--③-|
口⑧口口 |④-⑤-|
口②②① |⑥-⑦⑧|
27
口口口③ |①--②|
口口口口 |--③-|
口口口口
①②②口

口口口口
④口口口
口⑦⑥⑤ |④-----⑤⑥|
⑧口口口 |⑦-⑧-|
28
②口口② |①---|
口③③口 |②---|
口④④口 |③---|
⑤⑥⑦① |④--⑤⑥⑦|
29
口③口口 |①--②|
②口口② |--③-|
③口口口
口口口①

⑤口④⑥
口口口⑥
口⑧口④ |④-⑤-|
⑦口口口 |⑥-⑦⑧|
30
口口③口 |①--②|
口口①③ |--③-|
口口口口
口②②口

⑥④口⑤
④口⑦口
⑥⑧口⑤ |④-⑤-|
口口口口 |⑥-⑦⑧|
31
口口口③ |①--②|
口口口口 |--③-|
口口口口
①②②口

口口口口
④口口口
口⑦⑥⑤ |④-----⑤⑥|
⑧口口口 |⑦-⑧-|
32
口口口① |①---|
口口口口 |②---|
口口口口 |③---|
④③②口 |④---|
33
口①②口 |①-②-③-|
①口口⑤ |--④-⑤-|
②口③④
口⑤④③

⑥口⑦口
口⑥⑨口
⑧口⑦⑨ |⑥--⑦|
⑧口口口 |⑧-⑨-|
34
口①口② |①--②|
①口口口 |③-④⑤⑥---|
③口口口
口⑥⑤④

⑧口⑦口
口口⑨⑦
⑩⑪⑫口 |⑦--⑧|
口口口口 |⑨-⑩⑪⑫---|
35
口①⑦② |①--②|
①③⑨⑦ |③-④⑤⑥---|
口口口口 |⑦---|
⑧⑥⑤④ |⑧-⑨-|
36
口①口② |①--②|
①口口口 |③-④⑤⑥---|
③口口口
口⑥⑤④

⑧口⑨⑨
口⑧⑩⑦
口⑩⑦口 |⑦-⑧-|
口口口口 |⑨-⑩-|
37
口②③口 |①-②-|
②⑤⑦③ |③-④-|
①口⑤④ |⑤---|
⑥①④口 |⑥-⑦-|
38
①①口② |①--②|
①口口口 |③-④⑤⑥---|
③口口口
口⑥⑤④

⑧口⑦口
口口⑨⑦
⑩⑪⑫口 |⑦--⑧|
口口口口 |⑨-⑩⑪⑫---|
39
口①⑦② |①--②|
①③⑨⑦ |③-④⑤⑥---|
口口口口 |⑦---|
⑧⑥⑤④ |⑧-⑨-|
40
口①口② |①--②|
①口口口 |③-④⑤⑥---|
③口口口
口⑥⑤④

⑧口⑨⑨
口⑧⑩⑦
口⑩⑦口 |⑦-⑧-|
口口口口 |⑨-⑩-|
41
口②③口 |①-②-|
②口口③ |③-④-|
①口口④
口①④口

口口⑥口
口⑤⑦⑥
⑥⑥⑤口 |⑤---|
口口口口 |⑥-⑦-|
42
口①口② |①--②|
①口口口 |③-④⑤⑥---|
③口①①
口⑥⑤④

⑧口⑦口
口口⑨⑦
⑩⑪⑫口 |⑦--⑧|
口口口口 |⑨-⑩⑪⑫---|
43
口①⑦② |①--②|
①③⑨⑦ |③-④⑤⑥---|
口口口口 |⑦---|
⑧⑥⑤④ |⑧-⑨-|
44
口①口② |①--②|
①口口口 |③-④⑤⑥---|
③口口口
口⑥⑤④

⑧口⑨⑨
口⑧⑩⑦
口⑩⑦口 |⑦-⑧-|
口口口口 |⑨-⑩-|
45
口②③口 |①-②-|
②⑤⑦③ |③-④-|
①口⑤④ |⑤---|
⑥①④口 |⑥-⑦-|
46
口③②口 |①--②|
①口口① |--③-|
口②③口
口①①口

⑥口口⑤
④口口④
⑤口口⑥ |④--⑤|
口④④口 |--⑥-|
47
口③②口 |①--②|
①口口① |--③-|
口口口口
②①①③

口口口口
④口⑥④
⑤口口口 |④---|
⑤④④口 |⑤-⑥-|
48
①①口② |①--②|
①口口口 |③-④⑤⑥---|
③口口口
口⑥⑤④

口⑧⑨口
⑧⑦口⑨
⑩口⑦⑩ |⑦-⑧-|
口口口口 |⑨-⑩-|
49
①口口① |①-②③|
口②③口 |④-⑤-|
口①①口
④口口⑤

口⑦⑧口
口口口口
口口⑥⑩ |⑥-⑦⑧|
口⑨口口 |⑨-⑩-|
50
口口口口 |①-②③|
口①口口 |④-⑤-|
口②③口
④口口⑤

口口⑥口
口⑪⑦⑥
⑧⑨⑩口 |⑥---⑦-⑧⑨|
口口⑬⑫ |⑩---⑪-⑫⑬|
51
口②③口 |①-②③|
口口口口 |④-⑤-|
④口口⑤
口①口口

⑩口口口
口⑦⑧口
口口⑫⑪ |⑥-⑦⑧|
⑥⑨口⑥ |⑨---⑩-⑪⑫|
52
口口②② |①-②-|
③③口口 |③-④-|
口①口口
④口口④

⑤⑤口口
口口⑥⑥
⑦⑧⑨口 |⑤---⑥-⑦⑧|
口⑩⑩口 |⑨-⑩-|
53
①⑩⑩① |①-②③|
⑪②③⑨ |④---⑤-⑥⑦|
⑥⑦⑧口 |⑧-⑨-|
④口口⑤ |⑩-⑪-|
54
口口口口 |①-②③|
口②③口 |④-⑤-|
口口口口
④①①⑤

口⑥口口
⑥⑦口⑪
口⑩⑨⑧ |⑥---⑦-⑧⑨|
⑫⑬口口 |⑩---⑪-⑫⑬|
55
口口口口 |①-②③|
口②③口 |④-⑤-|
④口口⑤
口口①口

口⑨⑨口
⑧口口⑦
口⑩⑩口 |⑥-⑦⑧|
口⑥⑥口 |⑨-⑩-|
56
③④④② |①-②-|
口口口口 |③-④-|
③口口②
口①①口

口口口口
⑥口口⑦
口⑥⑦口 |⑤--⑥|
⑤⑥⑦⑤ |⑦---|


不確定度: 0

最終更新:2014年02月17日 17:52