きみはキョンシー RAM RIDER REMIX
シトラスラベンダー
BASIC
Level: 2
BPM: 130
Notes: 206
1
口口口口 |----|
口口口口 |----|
口口口口 |----|
口口口口 |----|
2
口①口口 |①---|
口口口口 |----|
口②口口 |②---|
口口口口 |----|
3
口口口口 |①---|
口①②③ |②---|
口口口口 |③---|
口口口口 |----|
4
口口口口 |①---|
口口口口 |----|
口口口① |----|
②口口口 |②---|
5
口口口③ |①---|
口①口口 |②---|
口口②口 |③---|
口口口口 |----|
6
口①口口 |①---|
口口口口 |----|
口②口口 |②---|
口口口口 |----|
7
口口口口 |①---|
口①②③ |②---|
口口口口 |③---|
口口口口 |----|
8
④口口④ |①---|
口③③口 |②---|
口②②口 |③---|
①口口① |④---|
9
口口口口 |----|
口口口口 |----|
口口口口 |----|
口口口口 |----|
10
①口口① |①---|
②口口② |----|
口口口口 |②---|
口口口口 |----|
11
口口口口 |①---|
口①②口 |②---|
口④③口 |③---|
口口口口 |④---|
12
口口口口 |①---|
口口口口 |----|
②口口② |②---|
①口口① |----|
13
口口口口 |①---|
口②①口 |②---|
口③④口 |③---|
口口口口 |④---|
14
①口口① |①---|
②口口② |----|
口口口口 |②---|
口口口口 |----|
15
口口口口 |①---|
口①②口 |②---|
口④③口 |③---|
口口口口 |④---|
16
口口口口 |①---|
口口口口 |----|
②口口② |②---|
①口口① |----|
17
口口口口 |①---|
口②①口 |②---|
口③④口 |③---|
口口口口 |④---|
18
口口口口 |①---|
口口口口 |----|
①口②口 |②---|
口口口口 |----|
19
口口③口 |①---|
口口②口 |----|
口①口口 |②---|
口口口口 |③---|
20
口②口① |①---|
口口口口 |----|
口口口口 |②---|
口口口口 |----|
21
口口①口 |①---|
口口②口 |②---|
口口③口 |③---|
口口口口 |----|
22
口口口口 |①---|
口口口口 |----|
口口口口 |②---|
口②口① |----|
23
口口口口 |①---|
口③口口 |----|
口②口口 |②---|
口口①口 |③---|
24
口①口口 |①---|
口口口口 |----|
口口口口 |----|
口口口口 |----|
25
③口口③ |----|
②口口② |①---|
口①①口 |②---|
口口口口 |③---|
26
口口口口 |①---|
口口口口 |----|
口②口① |②---|
口口口口 |----|
27
口③口口 |①---|
口②口口 |----|
口口①口 |②---|
口口口口 |③---|
28
①口②口 |①---|
口口口口 |----|
口口口口 |②---|
口口口口 |----|
29
口①口口 |①---|
口②口口 |②---|
口③口口 |③---|
口口口口 |----|
30
口口口口 |①---|
口口口口 |----|
口口口口 |②---|
①口②口 |----|
31
口口口口 |①---|
口口③口 |----|
口口②口 |②---|
口①口口 |③---|
32
④口口④ |①---|
口③③口 |②---|
口②②口 |③---|
①口口① |④---|
33
口口口口 |----|
口口口口 |----|
口口口口 |----|
口口口口 |----|
34
①口口口 |①---|
②口口口 |②---|
③口口口 |③---|
④口口口 |④---|
35
口口口口 |①---|
口①②③ |②---|
口口口口 |③---|
口口口口 |----|
36
口口口口 |①---|
口口口口 |----|
口②②口 |②---|
口①①口 |----|
37
口①①口 |①---|
口口②口 |②---|
口③口口 |③---|
口口口口 |----|
38
口口口④ |①---|
口口口③ |②---|
口口口② |③---|
口口口① |④---|
39
口口口口 |①---|
③②①口 |②---|
口口口口 |③---|
口口口口 |----|
40
口口口口 |①---|
口②②口 |----|
口口口口 |②---|
口①①口 |----|
41
口①①口 |①---|
口②口口 |②---|
口口③口 |③---|
口口口口 |----|
42
②②②② |①---|
①①①① |----|
口口口口 |②---|
口口口口 |----|
43
口口口口 |----|
口①口口 |①---|
口口②口 |②---|
口口口口 |----|
44
口口口口 |①---|
口口口口 |----|
口口口口 |----|
①口口口 |----|
45
口口口口 |①---|
口口口口 |②---|
①口口③ |③---|
口口②口 |----|
46
②②②② |①---|
①①①① |----|
口口口口 |②---|
口口口口 |----|
47
口口口口 |----|
口口①口 |①---|
口②口口 |②---|
口口口口 |----|
48
口口口口 |①---|
口口口口 |----|
口口口口 |----|
口口口① |----|
49
口口口口 |①---|
口口口口 |②---|
③口口① |③---|
口②口口 |----|
50
口①口口 |①---|
口口口口 |----|
口②口口 |②---|
口口口口 |----|
51
口口口口 |①---|
口①②③ |②---|
口口口口 |③---|
口口口口 |----|
52
口口口口 |①---|
口口口口 |----|
口口口① |----|
②口口口 |②---|
53
口口口③ |①---|
口①口口 |②---|
口口②口 |③---|
口口口口 |----|
54
口①口口 |①---|
口口口口 |----|
口②口口 |②---|
口口口口 |----|
55
口口口口 |①---|
口①②③ |②---|
口口口口 |③---|
口口口口 |----|
56
④口口④ |①---|
口③③口 |②---|
口②②口 |③---|
①口口① |④---|
57
口口口口 |----|
口口口口 |----|
口口口口 |----|
口口口口 |----|
58
口①口口 |①---|
口口口口 |----|
口②口口 |②---|
口口口口 |----|
59
口口口口 |①---|
口①②③ |②---|
口口口口 |③---|
口口口口 |----|
60
口口口口 |①---|
口口口口 |----|
口口口① |----|
②口口口 |②---|
61
口口口③ |①---|
口①口口 |②---|
口口②口 |③---|
口口口口 |----|
62
口①口口 |①---|
口口口口 |----|
口②口口 |②---|
口口口口 |----|
63
口口口口 |①---|
口①②③ |②---|
口口口口 |③---|
口口口口 |----|
64
口④④口 |①---|
口③③口 |②---|
口②②口 |③---|
①口口① |④---|
65
①口口① |①---|
口口口口 |----|
口口口口 |----|
口口口口 |----|
不確定度: 0