灼熱の翼
マジックアカデミー管弦楽団×劇団レコード
EXTREME
Level: 8
BPM: 166
Notes: 494
1
口口口口 |----|
口口口口 |----|
口口口口 |----|
口口口口 |----|
2
口口③① |--①-|
口口④口 |②---|
口⑥口② |③-④-|
口⑤口口 |⑤-⑥-|
3
①③口口 |--①-|
口④口口 |②---|
②口⑥口 |③-④-|
口口⑤口 |⑤-⑥-|
4
口口③① |--①-|
口口④口 |②---|
口⑥口② |③-④-|
口⑤口口 |⑤-⑥-|
5
①③口口 |--①-|
口④口口 |②---|
②口⑥口 |③-④-|
口口⑤口 |⑤-⑥-|
6
口口口② |①-②-|
④④口口 |③-④-|
口口口③
①①口口
口口⑤口
口口⑥口
口⑧口口 |⑤-⑥-|
口⑦口口 |⑦-⑧-|
7
②口口口 |①-②-|
口口口口 |③---|
③口口口
口口①①
口④口口
口⑤④④
口口⑦口 |④-⑤-|
口口⑥口 |⑥-⑦-|
8
口⑥⑤② |①-②-|
④④口口 |③-④-|
口⑧⑦③ |⑤-⑥-|
①①口口 |⑦-⑧-|
9
②④⑤口 |①-②-|
口口④④ |③---|
③⑥⑦口 |④-⑤-|
口口①① |⑥-⑦-|
10
口口口口 |①---|
口口口④ |----|
②②口③ |②-③-|
①①口② |④---|
11
②②口口 |①---|
①①④口 |----|
口口③口 |②-③-|
口口②口 |④---|
12
口口口口 |①---|
口口口④ |----|
②②口③ |②-③-|
①①口② |④---|
13
③口口③ |①-②-|
口①①口 |--③-|
口口口口 |----|
口②②口 |----|
14
口④③口 |--①-|
②口口① |②-③-|
口⑤⑤口 |④-⑤-|
⑥口口⑥ |--⑥-|
15
①④⑤① |----|
③口口口 |①-②-|
②口口② |--③-|
口口口口 |④-⑤-|
16
口口口口 |①-②-|
口口④① |③-④-|
③口口②
口口口口
口口口口
⑦⑤口⑦
口口口口 |⑤-⑥-|
口⑥⑥口 |--⑦-|
17
①口口③ |--①-|
口②④口 |②-③-|
口⑤⑥口 |④-⑤-|
⑦口口⑦ |⑥-⑦-|
18
口④③口 |--①-|
②口口① |②-③-|
口⑤⑤口 |④-⑤-|
⑥口口⑥ |--⑥-|
19
①④⑤① |----|
③口口口 |①-②-|
②口口② |--③-|
口口口口 |④-⑤-|
20
③⑥⑥④ |①-②-|
口口口① |③-④-|
口⑤②口 |⑤-⑥-|
⑦口口⑦ |--⑦-|
21
口口口口 |--①-|
口①①口 |②---|
口口口口 |----|
口②②口 |----|
22
口口口③ |----|
口口口口 |①-②-|
⑤②口④ |③-④-|
⑤口①口 |--⑤-|
23
口口口口 |--①-|
口口口② |②---|
口口①口 |----|
口口①② |----|
24
口①①口 |①---|
③口口③ |②-③-|
口④④口 |--④-|
⑤②②⑤ |--⑤-|
25
口①口口 |--①-|
②⑤口口 |②-③-|
口⑤口③ |④-⑤-|
口口④口 |----|
26
③口口口 |--①-|
口口口口 |②-③-|
口口②口
口①口口
口口口口
口口口口
④口口口 |④-⑤-|
⑥⑥口⑤ |--⑥-|
27
口①①口 |----|
口口口口 |①-②-|
②口口② |----|
口口口口 |----|
28
⑤⑤口口 |--①-|
口口③口 |②-③-|
口②口④ |④-⑤-|
①口⑥⑥ |--⑥-|
29
口口⑤口 |--①-|
④③①① |②---|
②②③④ |③--④|
口⑤口口 |--⑤-|
30
②①口口 |①---|
③口口口 |②---|
④口口口 |③---|
口口①口 |④---|
31
口口⑤① |①-②-|
口口②⑤ |③-④-|
⑥④口口 |⑤---|
③⑥口口 |⑥---|
32
口①④口 |①---|
①口②口 |--②-|
口③口口 |③--④|
口⑤口口 |--⑤-|
33
口口口口 |①--②|
口口口① |--③-|
口④②口 |④---|
③口口口 |----|
34
③①①③ |①-②-|
口口口口 |③-④-|
②口口② |----|
口④④口 |----|
35
③①①③ |①-②-|
口口口口 |③-④-|
②⑥口② |----|
④口⑤④ |--⑤⑥|
36
口口④口 |①---|
口③①口 |--②③|
口口②口 |④---|
⑤⑤口口 |⑤---|
37
①①②③ |①---|
口口②③ |--②-|
口口口口 |----|
口口口口 |③---|
38
口①口口 |①---|
口①口口 |②---|
口口口口
②口②口
⑤⑤⑤⑤
④口④口
口③口③ |③-④-|
口口口口 |--⑤-|
39
口口口口 |--①-|
③⑦口④ |②-③-|
口⑥②口 |④-⑤-|
口⑤口① |⑥-⑦-|
40
③①②④ |①--②|
口口口④ |--③-|
⑤口口口 |④---|
⑤口口口 |⑤---|
41
口口口口 |①---|
口④口口 |----|
口③口口 |--②-|
口②①① |③-④-|
42
③①②④ |①--②|
⑦口口④ |--③-|
⑥口口口 |④-⑤-|
⑤口口口 |⑥-⑦-|
43
④②①③ |①---|
④②①③ |②---|
口口口口 |③---|
口口口口 |--④-|
44
口口口④ |①-②-|
口口⑤口 |③-④-|
口③口口 |⑤---|
②口①① |----|
45
口①②口 |①---|
①口口② |②---|
②口口①
口②①口
口④口口
口③③口
口③③口 |③---|
口口⑤口 |④-⑤-|
46
①口口① |--①-|
②口口② |②-③-|
③口口③
口口口口
⑥⑥⑥口
口⑤⑥口
口⑥⑤口 |④-⑤-|
④⑥口④ |--⑥-|
47
口口口口 |----|
①④口① |①---|
①③口① |--②-|
口②口口 |③-④-|
48
③①②④ |①--②|
⑤口口口 |--③-|
口口口⑥ |④--⑤|
口口口口 |--⑥-|
49
口口口口 |①---|
口口④口 |----|
口口③口 |--②-|
①①②口 |③-④-|
50
④②①③ |①--②|
口⑦⑥⑤ |--③-|
口口口口 |④-⑤-|
口口口口 |⑥-⑦-|
51
④④口口 |①---|
①口口③ |②---|
①口口③ |③---|
口口②② |④---|
52
③口口② |①---|
口①①口 |----|
口①①口 |②--③|
②④④③ |--④-|
53
口①①口 |①---|
①口口① |----|
口口口口 |----|
口口口口 |----|
54
口口口口 |----|
口口口口 |----|
口口口口 |----|
口口口口 |----|
55
口口③① |--①-|
口口④口 |②---|
口⑥口② |③-④-|
口⑤口口 |⑤-⑥-|
56
①③口口 |--①-|
口④口口 |②---|
②口⑥口 |③-④-|
口口⑤口 |⑤-⑥-|
57
口口③① |--①-|
口口④口 |②---|
口⑥口② |③-④-|
口⑤口口 |⑤-⑥-|
58
①③口口 |--①-|
口④口口 |②---|
②口⑥口 |③-④-|
口口⑤口 |⑤-⑥-|
59
口口口② |①-②-|
④④口口 |③-④-|
口口口③
①①口口
口口⑤口
口口⑥口
口⑧口口 |⑤-⑥-|
口⑦口口 |⑦-⑧-|
60
②口口口 |①-②-|
口口口口 |③---|
③口口口
口口①①
口④口口
口⑤④④
口口⑦口 |④-⑤-|
口口⑥口 |⑥-⑦-|
61
口⑥⑤② |①-②-|
④④口口 |③-④-|
口⑧⑦③ |⑤-⑥-|
①①口口 |⑦-⑧-|
62
②口⑥口 |①-②-|
⑤④⑦口 |③---|
③⑦④⑤ |④-⑤-|
口⑥①① |⑥-⑦-|
63
①③口② |①-②-|
口口口口 |--③-|
口口口口
②口③①
⑤口④⑥
口口口口
口口口口 |④---|
⑥④口⑤ |⑤-⑥-|
64
口③③口 |--①-|
口口①② |②---|
②①口口 |③---|
口④④口 |④---|
65
口口口口 |①---|
①口口① |----|
①口口① |----|
口口口口 |----|
66
①①①① |①---|
口口口口 |----|
口口口口 |②---|
②②②② |----|
67
口口口口 |①---|
口口①口 |----|
口口口口 |----|
口口口口 |----|
68
口口口口 |①---|
①①①① |----|
口口口口 |----|
口口口口 |----|
69
口口口口 |①---|
口②口口 |----|
口口①口 |-②--|
口口口口 |----|
不確定度: 0