ヒーロー
鈴木友里絵

EXTREME

Level: 9
BPM: 155
Notes: 646

1
口口口口 |----|
口口口口 |----|
口口口口 |----|
口①口口 |--①-|
2
⑥口③③ |①-②-|
口口①② |--③-|
⑤④口口 |--④-|
口口口口 |⑤-⑥-|
3
口④口② |--①-|
口口口② |②---|
口口口口 |----|
①口③③ |③--④|
4
口口口口 |①---|
⑤③①口 |②--③|
⑥②④② |④---|
口口口口 |⑤-⑥-|
5
③③②口 |①-②-|
口口①口 |③-④-|
口⑤口口 |----|
口口④④ |--⑤-|
6
口口①① |①--②|
口②口口 |③---|
口口③口
口口口口

口口口⑦
④口口⑦
⑤口口口 |④-⑤-|
⑥口口口 |⑥-⑦-|
7
口②口④ |--①-|
②①③口 |②---|
口③①② |----|
口口②口 |③-④-|
8
⑦⑧⑧口 |①-②-|
口①⑥口 |③-④-|
口⑤②口 |⑤-⑥-|
③口口④ |⑦-⑧-|
9
口口口口 |----|
①口口口 |----|
口口口口 |----|
口口口口 |--①-|
10
口②口① |①--②|
口④③口 |③--④|
⑥口⑤⑦ |⑤-⑥-|
⑧口口口 |⑦-⑧-|
11
口口口口 |①-②-|
口④口口 |③-④-|
口④口口
口②③①

口⑥口口
口口口口
口口口口 |----|
⑤口口⑤ |⑤--⑥|
12
口⑧口口 |①--②|
口②①口 |③-④-|
④口③⑤ |⑤-⑥-|
⑥口口⑦ |⑦-⑧-|
13
口口口口 |①-②-|
①④④口 |③-④-|
口④④③ |----|
口⑤②口 |--⑤-|
14
口口①① |①--②|
④②口⑥ |③---|
⑤口③⑦ |④-⑤-|
口口口口 |⑥-⑦-|
15
④④③口 |①-②-|
口口②口 |③-④-|
④④口口
口①口口

口口口口
口口口口
口口⑤⑤ |--⑤-|
口⑥⑤⑤ |--⑥-|
16
口口口口 |①--②|
口②①③ |③-④-|
④口口⑤ |⑤-⑥-|
⑥口⑦⑦ |⑦---|
17
口口口口 |----|
口口口口 |----|
口口口口 |----|
口口口① |--①-|
18
口口口① |①-②-|
②③口口 |--③-|
②口口口
口口口口

⑥口④口
⑦口⑤口
口口口口 |④-⑤-|
口口口口 |⑥-⑦-|
19
口口⑤⑤ |①-②-|
口口口口 |③-④-|
⑥④口① |⑤---|
口③口② |--⑥-|
20
口口口口 |①-②-|
①③口口 |--③-|
口口②口
口口②口

⑤⑤口口
⑤口口口
口⑤口口 |④---|
⑤⑤口④ |⑤---|
21
口口①① |①---|
口口①① |②-③-|
②口①③ |----|
④口①口 |--④-|
22
①口口口 |①-②-|
口口③② |--③-|
口口口②
口口口口

口④口⑥
口⑤口⑦
口口口口 |④-⑤-|
口口口口 |⑥-⑦-|
23
口口口口 |①-②-|
口口口口 |③-④-|
①口④口
②口③口

⑤口口口
口⑥口口
口口口口 |⑤--⑥|
⑦口口口 |--⑦-|
24
⑧⑥⑧① |①-②-|
口④③口 |③-④-|
口②⑤口 |⑤-⑥-|
口口⑦口 |⑦-⑧-|
25
口口口口 |----|
口①口口 |①---|
③口①③ |②---|
口②口② |③---|
26
①口口口 |①---|
①口口口 |②---|
口口口口
口口②②

⑥⑥口⑤
口口④口
口③④⑤ |③-④-|
口③口口 |⑤-⑥-|
27
⑤口口口 |--①-|
口④口口 |②---|
⑤④③口 |③-④-|
②②③① |⑤---|
28
口口③① |①-②-|
口口口口 |③-④-|
口口④②
口口口口

口⑤口⑧
⑦口口⑧
口⑥口口 |⑤-⑥-|
口口口口 |⑦-⑧-|
29
②②口口 |--①-|
④口口口 |--②-|
②②③③ |--③-|
①①③③ |--④-|
30
口口①口 |①-②-|
口②口③ |③-④-|
口口④口 |⑤-⑥-|
⑦⑤⑥⑥ |--⑦-|
31
口⑤口① |①-②-|
③⑤②口 |③-④-|
⑥口④④ |--⑤-|
口口口口 |--⑥-|
32
口口口口 |①-②-|
⑦⑤③① |③-④-|
口口口口 |⑤-⑥-|
⑧⑥④② |⑦-⑧-|
33
口口口口 |①---|
口口②① |②---|
口口②①
口口口口

口口口口
口口口⑤
③④口⑤ |③-④-|
口口口口 |⑤---|
34
①口口口 |①---|
①口口口 |②---|
口口口口
口口②②

⑥⑥口⑤
口口④口
口③④⑤ |③-④-|
口③口口 |⑤-⑥-|
35
⑤口口口 |--①-|
口④口口 |②---|
⑤④③口 |③-④-|
②②③① |⑤---|
36
口口③① |①-②-|
口口口口 |③-④-|
口口④②
口口口口

口⑤口⑧
⑦口口⑧
口⑥口口 |⑤-⑥-|
口口口口 |⑦-⑧-|
37
②②口口 |--①-|
④口口口 |--②-|
②②③③ |--③-|
①①③③ |--④-|
38
口口①口 |①-②-|
口②口③ |③-④-|
④④口口 |--⑤-|
⑥口⑤⑤ |--⑥-|
39
口口口① |①-②-|
③⑤②口 |③-④-|
口⑥④④ |--⑤-|
口口⑦⑦ |⑥-⑦-|
40
口口口口 |----|
口口口口 |----|
口口③口 |--①-|
①②口口 |②-③-|
41
③③②① |①--②|
口口②① |--③-|
③③④④ |----|
口口④④ |④---|
42
口口①② |①---|
口口口口 |②---|
口口口口
②①口口

口口④口
口③口口
口口③口 |③---|
口④口口 |④---|
43
口③口② |①---|
①口④口 |②---|
口④口① |③---|
②口③口 |④---|
44
口③④② |①---|
③①口④ |②---|
④口①③ |③---|
②④③口 |④---|
45
口③④② |①---|
④①口③ |②---|
③口①④ |③---|
②④③口 |④---|
46
口口口④ |----|
口⑥③⑧ |①②③④|
⑤②⑦口 |-⑤-⑥|
①口口口 |⑦-⑧-|
47
口口口口 |①-②-|
③口④口 |③-④⑤|
口⑤口②
口①口口

口口⑥口
口⑦口口
口口⑧口 |-⑥-⑦|
口⑨口口 |⑧-⑨-|
48
口口口④ |①---|
①口口① |--②③|
口③⑥口 |④---|
口⑤②口 |--⑤⑥|
49
①⑨口⑤ |①②③④|
②⑩⑮⑥ |⑤⑥⑦⑧|
③⑪⑭⑦ |⑨⑩⑪⑫|
④⑫⑬⑧ |⑬-⑭-⑮-|
50
口口①口 |①---|
②④口② |--②-|
③口⑤③ |③---|
口口口口 |--④⑤|
51
⑤口⑥⑥ |①--②|
⑤口口④ |--③-|
③口口④ |④--⑤|
③②②① |--⑥-|
52
口口口口 |①---|
口口口口 |----|
口①①口
口口口口

口口口口
口口口口
口口③口 |----|
口②口口 |--②③|
53
①口口⑤ |①②③④|
②口口⑥ |⑤⑥⑦⑧|
③口口⑦
④口口⑧

⑬口⑫口
口⑪⑩口
口⑨口口 |⑨⑩⑪⑫|
口口口口 |⑬---|
54
口①口口 |①---|
口口口口 |②---|
口②口口
口口口口

口④口口
口口口口
口口口口 |③---|
口口③口 |--④-|
55
口口①口 |--①-|
口口②口 |②---|
口口口口 |③---|
口③口口 |----|
56
口①⑧口 |①-②-|
口②⑦口 |③-④-|
口③⑥口 |⑤-⑥-|
口④⑤口 |⑦-⑧-|
57
②②口口 |--①-|
①口口① |--②-|
②②③③ |--③-|
口口③③ |----|
58
口⑥口④ |①-②-|
口②③口 |③-④-|
口口口⑤ |--⑤-|
①口口口 |--⑥-|
59
口口口⑤ |①-②-|
口口①口 |③-④-|
口②口口 |--⑤-|
④⑥③口 |--⑥-|
60
口③④口 |①-②-|
口②⑤口 |③-④-|
口①⑥口 |⑤-⑥-|
口⑧⑦口 |⑦-⑧-|
61
口③③口 |①---|
②④④② |②---|
⑤①口⑤ |③-④-|
口口口口 |⑤---|
62
①口口口 |①---|
①口口口 |②---|
口口口口
口口②②

⑥⑥口⑤
口口④口
口③④⑤ |③-④-|
口③口口 |⑤-⑥-|
63
⑤口口口 |--①-|
口④口口 |②---|
⑤④③口 |③-④-|
②②③① |⑤---|
64
口口③① |①-②-|
口口口口 |③-④-|
口口④②
口口口口

口⑤口⑧
⑦口口⑧
口⑥口口 |⑤-⑥-|
口口口口 |⑦-⑧-|
65
②②口口 |--①-|
④口口口 |--②-|
②②③③ |--③-|
①①③③ |--④-|
66
口口①口 |①-②-|
口②口③ |③-④-|
④④口口 |--⑤-|
⑥口⑤⑤ |--⑥-|
67
口口口① |①-②-|
③⑤②口 |③-④-|
口⑥④④ |--⑤-|
口口⑦⑦ |⑥-⑦-|
68
口口口口 |----|
口口口口 |----|
口口③口 |--①-|
①②口口 |②-③-|
69
③③②① |①--②|
口口②① |--③-|
③③④④ |----|
口口④④ |④---|
70
④③②① |①②③④|
⑧⑦⑥⑤ |⑤⑥⑦⑧|
⑫⑪⑩⑨ |⑨⑩⑪⑫|
⑯⑮⑭⑬ |⑬⑭⑮⑯|
71
②⑥⑤① |①②③④|
④⑧⑦③ |⑤⑥⑦⑧|
⑩⑫⑪⑨ |⑨⑩⑪⑫|
⑭口⑬口 |⑬-⑭-|
72
口③⑦口 |--①-|
④⑥②口 |②-③-|
口口⑤口 |④-⑤⑥|
口口口① |⑦---|
73
口①口② |--①-|
③口④口 |--②-|
①口②口 |--③-|
口③口④ |--④-|
74
⑨口⑧口 |--①-|
口⑦⑥口 |②-③④|
①⑤④② |-⑤⑥-|
口③口口 |⑦⑧-⑨|
75
口⑧口口 |①-②③|
②口⑦① |-④⑤-|
④⑥口③ |--⑥⑦|
口口口⑤ |⑧---|
76
①口口① |--①-|
口②③口 |--②-|
口④⑤口 |③-④-|
口⑥口口 |⑤-⑥-|
77
③⑥⑥② |--①-|
口口口口 |②-③-|
口口口口 |④-⑤-|
④⑤⑤① |⑥---|


不確定度: 0

最終更新:2013年05月16日 16:29