a burning bullet
LAST ALLIANCE

ADVANCED

Level: 6
BPM: 209
Notes: 314

1
口口口口 |----|
口口口口 |----|
口口口口 |----|
口口口口 |----|
2
口口口口 |----|
口口口口 |----|
口口口口 |----|
口口口口 |----|
3
口口口口 |----|
口口口口 |----|
口口口口 |----|
口口口口 |----|
4
口口口口 |----|
口口口口 |----|
口口口口 |----|
口口口口 |----|
5
口口口口 |----|
口口口口 |----|
口口口口 |----|
口口口口 |----|
6
口口口口 |----|
口口口口 |----|
口口口口 |----|
口口口口 |----|
7
口口口口 |----|
口口口口 |----|
口口口口 |----|
口口口口 |----|
8
口口口口 |----|
口口口口 |----|
口口口口 |----|
口口口口 |----|
9
口口口口 |----|
口口口口 |----|
口口口口 |----|
口口口口 |----|
10
口①口口 |①---|
口口口② |--②-|
口③口口 |----|
口口口口 |③---|
11
口口①口 |--①-|
口口②口 |----|
口③口③ |②---|
口口口口 |③---|
12
口口口口 |①---|
③②③② |--②-|
①口①口 |----|
口口口口 |③---|
13
口①口口 |--①-|
口口口口 |----|
②口③口 |②---|
口口口口 |③---|
14
口②④口 |①---|
口①③口 |②---|
口口口口 |③---|
口口口口 |④---|
15
②口口④ |①---|
①口口③ |②---|
口口口口 |③---|
口口口口 |④---|
16
口口口口 |①---|
口①③口 |--②-|
口③①口 |----|
口②②口 |③---|
17
口口口口 |----|
口口口② |----|
①口口口 |①---|
口口口口 |②---|
18
口口①口 |①---|
②口口口 |--②-|
口口③口 |----|
口口口口 |③---|
19
口①口口 |--①-|
口②口口 |----|
③口③口 |②---|
口口口口 |③---|
20
口口口口 |①---|
②③②③ |--②-|
口①口① |----|
口口口口 |③---|
21
口口①口 |--①-|
口口口口 |----|
口③口② |②---|
口口口口 |③---|
22
口②④口 |①---|
口①③口 |②---|
口口口口 |③---|
口口口口 |④---|
23
②口口④ |①---|
①口口③ |②---|
口口口口 |③---|
口口口口 |④---|
24
口口口口 |①---|
口①口口 |--②-|
③口①③ |----|
口②②口 |③---|
25
口①①口 |----|
口口口口 |----|
口口口口 |①---|
口口口口 |----|
26
①口口口 |①-②-|
③口②⑦ |③-④-|
口口④⑥ |⑤---|
⑤⑤口口 |⑥-⑦-|
27
口③口口 |--①-|
口①口口 |----|
口②口口 |--②-|
口口口口 |--③-|
28
口⑥③③ |①-②-|
口口⑤口 |--③-|
口口②口 |--④-|
口④①口 |⑤-⑥-|
29
口口口口 |----|
口口口口 |----|
口口口口 |----|
口口口口 |----|
30
口口口① |①-②-|
⑦②口③ |③-④-|
⑥④口口 |⑤---|
口口⑤⑤ |⑥-⑦-|
31
口口③口 |--①-|
口②①口 |----|
口口口口 |--②-|
口口口口 |--③-|
32
口口口口 |①-②-|
②口③③ |--③-|
①口④口 |----|
口⑤⑤口 |④-⑤-|
33
口口⑤⑤ |--①-|
口①口口 |----|
④口口③ |②-③-|
②口口口 |④-⑤-|
34
①①⑥⑥ |--①-|
口⑤口口 |--②-|
口③④口 |③-④-|
口口②口 |⑤-⑥-|
35
①①口口 |--①-|
口口口⑤ |--②-|
④⑥口③ |③-④-|
②口口口 |⑤-⑥-|
36
口①口口 |--①-|
口口②口 |--②-|
口④③口 |--③-|
口③④口 |--④-|
37
口口口口 |----|
口口口口 |----|
口口口口 |----|
口口口口 |----|
38
①口口口 |①-②-|
③口②⑦ |③-④-|
口口④⑥ |⑤---|
⑤⑤口口 |⑥-⑦-|
39
口口③口 |--①-|
口①口口 |----|
口②口口 |--②-|
口口口口 |--③-|
40
①③口① |①---|
②口③② |②---|
口④⑤⑥ |③-④-|
口口口口 |⑤-⑥-|
41
①口口① |----|
②口口② |①---|
口口口口 |②---|
③口口③ |③---|
42
口①①口 |①---|
口口口口 |----|
口口口口 |----|
口口口口 |----|
43
口口口口 |----|
口口口口 |----|
口②口口 |①-②-|
③①口③ |--③-|
44
口①②口 |----|
口③④口 |①-②-|
口④③口 |--③-|
口口口口 |--④-|
45
口口口口 |----|
口口口口 |----|
①口口口 |----|
口口口口 |①---|
46
口口④① |①---|
口口口③ |②---|
口口④② |③---|
口口口口 |④---|
47
口口口口 |----|
口口①② |①---|
口口口口 |②---|
口口口③ |③---|
48
①④口口 |①---|
③口口口 |②---|
②④口口 |③---|
口口口口 |④---|
49
口口口口 |----|
②①口口 |①---|
口口口口 |②---|
③口口口 |③---|
50
①口口① |①---|
口口口口 |----|
口口口口 |----|
口口口口 |----|
51
口口口口 |----|
口口口口 |----|
口②口口 |①-②-|
③①口③ |--③-|
52
口①②口 |----|
口③④口 |①-②-|
口④③口 |--③-|
口口口口 |--④-|
53
口口口口 |----|
口口口口 |----|
口口口口 |----|
口①口口 |①---|
54
①②口口 |①---|
口口口③ |②---|
④④口口 |③---|
口口口口 |④---|
55
口口口口 |----|
口②①口 |①---|
口口口口 |②---|
口③③口 |③---|
56
口口口口 |----|
口口口口 |----|
口口口口 |----|
口口口口 |----|
57
①口口口 |①---②-|
②口口④ |--③---|
③口口⑤ |④---⑤-|
口口口⑥ |--⑥---|
58
④口口① |①-②-|
口⑤②口 |--③-|
口③③口 |----|
口口口口 |④-⑤-|
59
口④口④ |--①-|
口口③口 |----|
②口口口 |②-③-|
口①口① |--④-|
60
③口③口 |----|
口②口口 |①-②-|
口口口① |--③-|
口口口口 |----|
61
④①口口 |①-②-|
口口②口 |--③-|
④③口③ |----|
口口口口 |④---|
62
口口②口 |①---|
口①口③ |②---|
口④②口 |③---|
口口口口 |④---|
63
口②②口 |①---|
①口口④ |②---|
口口口口 |③---|
口③口口 |④---|
64
①口口② |①---|
口①②口 |--②-|
口口口口 |----|
口③③口 |③---|
65
口①①口 |--①-|
口口②口 |----|
口③口③ |②---|
口口口口 |③---|
66
口口口口 |①---|
③②口② |--②-|
①口①口 |----|
口口口口 |③---|
67
口口口口 |①---|
口口口口 |----|
口口口口 |----|
①口口口 |----|
68
①口①口 |①---|
口②口② |--②-|
口口口口 |----|
③口③口 |③---|
69
口口①① |--①-|
口②③口 |----|
口口口口 |②---|
口口口口 |③---|
70
⑤口口口 |①---|
口口口④ |②-③-|
①②③口 |--④-|
口①口口 |--⑤-|
71
口口口口 |----|
口口口口 |----|
口①②口 |①---|
口口口口 |②---|
72
①口口② |①---|
口①②口 |--②-|
口口口口 |----|
口③③口 |③---|
73
口①①口 |--①-|
口口②口 |----|
口③口③ |②---|
口口口口 |③---|
74
口口口口 |①---|
③②口② |--②-|
①口①口 |----|
口口口口 |③---|
75
口口口口 |①---|
口口口口 |----|
口口口口 |----|
①口口口 |----|
76
①③③① |①---|
⑤②口⑤ |②-③-|
口口④口 |--④-|
口口口口 |--⑤-|
77
口口口口 |----|
口口①口 |①---|
口②口口 |②---|
口口③口 |③---|
78
口口口口 |----|
①口口① |----|
口口口口 |①---|
口口②口 |②---|
79
口口口口 |----|
口②②口 |----|
口①①口 |①---|
口口口口 |②---|
80
口口口口 |①---|
口口口口 |----|
口口口口 |----|
口①①口 |----|


不確定度: 0

最終更新:2013年04月06日 23:29