Our Faith
kors k

EXTREME

Level: 10
BPM: 175
Notes: 825

1
口口口口 |----|
口口口口 |----|
口口口口 |----|
口口口口 |----|
2
①口口口 |①---|
②口口② |②---|
③口③口 |③---|
④①①④ |④---|
3
①口①口 |①---|
②口④② |②---|
③口口口 |③---|
④③口口 |④---|
4
①口口③ |①---|
②口④口 |②---|
③①口口 |③---|
④口②口 |④---|
5
①口口口 |①---|
②口口③ |②---|
③④口① |③---|
④②口口 |④---|
6
①口①① |①---|
②②②口 |②---|
③口③③ |③---|
④④④口 |④---|
7
①口①② |①-②-|
③口③④ |③-④-|
⑤口⑤⑥ |⑤-⑥-|
⑦口⑦⑧ |⑦-⑧-|
8
③口④② |①②③④|
口⑤口口 |⑤⑥⑦⑧|
口①⑥⑧
口⑦口口

口⑨口⑯
⑪口⑫口
⑮口口口 |⑨⑩⑪⑫|
⑬口⑩⑭ |⑬⑭⑮⑯|
9
①④③口 |①---|
口②口⑨ |②③④-|
⑧⑦⑥⑤ |⑤⑥⑦⑧|
口口口⑨ |⑨---|
10
①口口① |①---|
②③①口 |②-③④|
口④口口
口口口口

口口口⑦
口口口口
⑤口⑥口 |⑤---|
⑥⑤口口 |⑥-⑦-|
11
①①①口 |①---|
②④口④ |②---|
③②口② |③---|
④⑤③⑤ |④-⑤-|
12
①⑥⑥① |①---|
②口①口 |②-③④|
⑤③④⑤ |⑤---|
⑥口口口 |⑥---|
13
①口⑥① |①---|
②②①② |②---|
③口③口 |③-④-|
⑤④口⑤ |⑤-⑥-|
14
①口口① |①---|
②③①口 |②-③④|
口④口口
口口口口

口口口⑦
口口口口
⑤口⑥口 |⑤---|
⑥⑤口口 |⑥-⑦-|
15
①①①口 |①---|
②口口③ |②---|
③②④② |③-④-|
⑤⑥口⑤ |⑤-⑥-|
16
①⑥⑥① |①---|
②口①口 |②-③④|
⑤③④⑤ |⑤---|
⑥口口口 |⑥---|
17
①口⑥① |①---|
口②①② |②---|
口口③口 |③-④-|
口④口⑤ |⑤-⑥-|
18
口①口③ |①---|
④口①口 |②---|
③①③口 |③---|
②口①口 |④---|
19
口口口口 |①---|
④口①口 |②---|
③③③口 |③---|
②口口① |④---|
20
口④口口 |①---|
④口④口 |②---|
③口口口 |③---|
②①①口 |④---|
21
①口口口 |①---|
口口④③ |②---|
口①②口 |----|
口口①口 |③-④-|
22
口口口③ |①---|
④①口口 |②---|
③口③口 |③---|
②口口口 |④---|
23
口口口口 |①---|
④口①口 |②---|
③③③口 |③---|
②口口① |④---|
24
口②口② |①---|
口口口口 |②---|
口口口口
②①①口

口口口口
④口口口
③③口③ |③---|
口⑤⑤口 |④-⑤-|
25
①②②口 |①-②-|
口⑤④③ |③---|
口口③口 |④---|
口口口口 |⑤---|
26
口①①③ |①---|
④口口口 |②---|
③口③口 |③---|
②①①口 |④---|
27
口口口口 |①---|
④口①口 |②---|
③③③口 |③---|
②口口① |④---|
28
口④口口 |①---|
④口④口 |②---|
③口口口 |③---|
②①①口 |④---|
29
①④③口 |①---|
口②口③ |②---|
口①口⑤ |③-④-|
口⑥①口 |⑤-⑥-|
30
①口口口 |①---|
②口口口 |②---|
口口口口
口口①①

口口口口
口口口口
③口口口 |③---|
④口⑤口 |④-⑤-|
31
①④④② |①-②-|
③口①口 |③-④-|
⑤⑥口⑥ |⑤---|
⑥口口口 |⑥---|
32
②口⑦口 |①-②-|
⑥口③① |③-④-|
口口①口 |⑤-⑥-|
⑧④口⑤ |⑦-⑧-|
33
口口口口 |①②③④|
⑧④口⑤ |⑤⑥⑦⑧|
②⑥⑦③
口口①口

⑫⑪⑩⑨
口口口口
口口口口 |⑨⑩⑪⑫|
⑬⑭⑮⑯ |⑬⑭⑮⑯|
34
⑤口口⑥ |①--②|
口①①② |-③④-|
口③④口 |⑤--⑥|
口⑦⑧口 |-⑦⑧-|
35
⑥口口⑤ |①--②|
口③④口 |-③④-|
②⑦⑧① |⑤--⑥|
口⑨口口 |-⑦⑧⑨|
36
口②①口 |①②-③|
口口口③ |-④⑤⑥|
④口口⑤
⑥口口口

口口⑫⑨
口⑧⑦口
口口⑩口 |⑦⑧-⑨|
口⑪口口 |-⑩⑪⑫|
37
①⑥口⑦ |①②-③|
⑧口⑤② |-④⑤⑥|
③口口④ |⑦-⑧-|
⑩口口⑨ |⑨-⑩-|
38
口②②口 |①---|
④口口⑤ |②---|
口③③口 |③---|
④①①⑤ |④-⑤-|
39
口②②口 |①---|
④口口⑤ |②---|
③口口③ |③---|
④①①⑤ |④-⑤-|
40
③口④② |①②③④|
口⑤口口 |⑤⑥⑦⑧|
口①⑥⑧
口⑦口口

口⑨口⑯
⑪口⑫口
⑮口口口 |⑨⑩⑪⑫|
⑬口⑩⑭ |⑬⑭⑮⑯|
41
①④③口 |①---|
口②口⑨ |②③④-|
⑧⑦⑥⑤ |⑤⑥⑦⑧|
口口口⑨ |⑨---|
42
①口④⑤ |①--②|
③②①口 |③④⑤-|
口口口口
口口口口

口⑧口口
口口⑩⑪
⑥口⑥⑦ |⑥⑦-⑧|
⑨口口口 |⑨⑩⑪-|
43
①⑦口口 |①--②|
③④⑨⑩ |③④⑤-|
⑥⑤⑪⑥ |⑥--⑦|
⑧①口② |⑧⑨⑩⑪|
44
①口①② |①②-③|
④口口口 |④⑤⑥-|
口③口口
口⑤⑥口

口⑧⑫口
口口⑩⑪
⑦口口⑦ |⑦--⑧|
⑨口口口 |⑨⑩⑪⑫|
45
①口口④ |①--②|
③①口⑩ |③④-⑤|
⑥②⑤⑥ |⑥-⑦⑧|
⑨⑦⑧⑨ |⑨-⑩-|
46
①口④⑤ |①--②|
③②①口 |③④⑤-|
口口口口
口口口口

口⑧口口
口口⑩⑪
⑥口⑥⑦ |⑥⑦-⑧|
⑨口口口 |⑨⑩⑪-|
47
①⑦口口 |①--②|
③④⑨⑩ |③④⑤-|
⑥⑤⑪⑥ |⑥--⑦|
⑧①口② |⑧⑨⑩⑪|
48
①口②② |①---|
②⑥⑥口 |②---|
③③口③ |③--④|
⑤①④口 |⑤-⑥-|
49
①⑨②② |①-②-|
③口口⑧ |③-④⑤|
⑥④⑤⑥ |⑥-⑦-|
⑧⑦口③ |⑧-⑨-|
50
①口④⑤ |①--②|
③②①口 |③④⑤-|
口口口口
口口口口

口⑧口口
口口⑩⑪
⑥口⑥⑦ |⑥⑦-⑧|
⑨口口口 |⑨⑩⑪-|
51
①口口口 |①--②|
③④口口 |③④⑤-|
口⑤口口
口①口②

口⑦口口
口口口口
⑥口口⑥ |⑥--⑦|
⑧⑨⑩口 |⑧⑨⑩-|
52
①口口口 |①②-③|
④⑤⑥② |④⑤⑥⑦|
口⑦①口
口口口③

口⑧⑨⑩
口口口口
⑧口⑫⑬ |⑧⑨-⑩|
⑪口⑭口 |⑪⑫⑬⑭|
53
①口口口 |①--②|
③④⑤⑥ |③④⑤⑥|
口口口口
口②口①

口⑦口⑧
口口口口
⑦⑨口口 |⑦-⑧-|
⑨口口⑩ |⑨-⑩-|
54
①⑤口⑤ |①---|
②②口② |②---|
③④③③ |③---|
④①①口 |④-⑤-|
55
①⑨口⑨ |①-②-|
③④②② |③-④-|
⑤口口⑤ |⑤-⑥⑦|
⑧⑥⑦⑧ |⑧-⑨-|
56
①口口口 |①---|
②②口② |②---|
口口①口
口口口口

口口口口
口口③口
③④⑤③ |③--④|
口④⑤口 |--⑤-|
57
③口口② |-①②③|
⑤①口④ |④⑤⑥⑦|
⑦口口口
口口口⑥

口口⑩口
口⑮⑧口
口⑪口⑭ |⑧⑨⑩⑪|
⑬⑨⑫口 |⑫⑬⑭⑮|
58
①⑥口① |①--②|
③⑦⑦② |③-④-|
⑤口②⑧ |⑤⑥--|
⑦④⑧④ |⑦-⑧-|
59
①⑥①口 |①--②|
③⑦⑦② |③-④-|
⑤口②⑧ |⑤⑥--|
⑦④口④ |⑦-⑧-|
60
①⑦②② |①--②|
③⑥⑦④ |③-④-|
⑤①①⑧ |⑤⑥--|
⑦⑥⑧④ |⑦-⑧-|
61
①口②② |①--②|
③口口口 |③-④-|
口①①口
口④口④

口口口口
口⑥⑥口
⑤⑧口⑦ |⑤⑥--|
⑦口口口 |⑦-⑧-|
62
①⑥口① |①--②|
③⑦⑦② |③-④-|
⑤口②⑧ |⑤⑥--|
⑦④⑧④ |⑦-⑧-|
63
①⑦②② |①--②|
③⑥⑦① |③-④-|
⑤口①⑧ |⑤⑥--|
⑦④⑧④ |⑦-⑧-|
64
①⑦②② |①--②|
③⑥⑦④ |③-④-|
⑤①①⑧ |⑤⑥--|
⑦⑥⑧④ |⑦-⑧-|
65
①⑨②② |①--②|
③⑥⑥⑨ |③-④-|
⑤①①⑦ |⑤⑥-⑦|
⑧④口④ |⑧-⑨-|
66
②⑩⑪③ |①---|
④⑧⑨口 |②③④⑤|
⑥①①⑦ |⑥⑦⑧⑨|
⑩口⑤⑪ |⑩-⑪-|
67
口⑤口口 |--①②|
③⑥⑥③ |③---|
④①②⑦ |④⑤--|
⑥③③口 |⑥-⑦-|
68
①⑦②② |①--②|
③⑥⑦④ |③-④-|
⑤①①⑧ |⑤⑥--|
⑦⑥⑧④ |⑦-⑧-|
69
①口②② |①--②|
③口口口 |③-④-|
口①①口
口④口④

口⑥口口
口口口⑤
⑤⑧口⑦ |⑤-⑥-|
⑦口口口 |⑦-⑧-|
70
⑤口口⑥ |①-②-|
口①②口 |③-④-|
⑦口口⑧ |⑤-⑥-|
口③④口 |⑦-⑧-|
71
口①②口 |①-②-|
口⑤⑥口 |③-④-|
⑦口口⑧ |⑤-⑥-|
③口口④ |⑦-⑧-|
72
①口口⑧ |①②③④|
⑦口口④ |⑤⑥⑦⑧|
口⑤②口
口③口⑥

⑮⑬⑭口
口⑨⑩口
口口口⑫ |⑨⑩⑪⑫|
⑪口⑯口 |⑬⑭⑮⑯|
73
口⑧⑦口 |①--②|
口④③⑥ |--③④|
⑤②②⑤ |-⑤-⑥|
⑧①口⑦ |⑦-⑧-|
74
①口口① |①---|
口口口口 |----|
口①①口 |----|
口口口口 |----|

不確定度: 0

最終更新:2014年03月16日 15:34