Broken
dj TAKA feat.AiMEE
EXTREME
Level: 10
BPM: 148
Notes: 729
1
口口口口 |----|
口口口口 |----|
口口口口 |----|
口口口口 |----|
2
①口口⑧ |①-②-|
③口口⑥ |③-④-|
⑤口口④ |⑤-⑥-|
⑦口口② |⑦-⑧-|
3
⑥④②口 |①-②-|
⑧口口口 |③-④-|
口口口⑦ |⑤-⑥-|
口①③⑤ |⑦-⑧-|
4
⑦口口⑥ |①-②-|
口①②口 |③-④-|
口③④口 |⑤-⑥-|
⑤口口⑧ |⑦-⑧-|
5
口⑦⑥口 |①-②-|
③口口② |③-④-|
①口口④ |⑤-⑥-|
口⑤⑧口 |⑦-⑧-|
6
①口口④ |①②③-|
⑤①口② |④⑤⑥-|
口口口口
③口口⑥
口⑦⑩口
口⑪⑧口
口口口口 |⑦⑧⑨-|
口⑨⑫口 |⑩⑪⑫-|
7
口⑦⑩口 |①②③-|
①⑪⑧④ |④⑤⑥-|
⑨⑤②⑫ |⑦⑧⑨-|
③口口⑥ |⑩⑪⑫-|
8
①口口④ |①②③-|
⑤口口② |④⑤⑥-|
口口口口
③口口⑥
⑪⑦⑩⑭
口口口口
⑨口⑧⑫ |⑦⑧⑨⑩|
口⑬口口 |⑪⑫⑬⑭|
9
口口口口 |①---|
②①①③ |②-③-|
口口口口
②口口③
口④④口
口⑨口口
⑤口⑧⑥ |④-⑤⑥|
口⑦⑩口 |⑦⑧⑨⑩|
10
①⑦④口 |①②③-|
⑤口②口 |④⑤⑥⑦|
口口口⑥
③口口口
⑩口口⑩
口⑪⑫口
口⑧⑨口 |-⑧⑨-|
口口口口 |⑩-⑪⑫|
11
口④⑤口 |-①②-|
⑨⑥口⑩ |③-④⑤|
③口⑦③ |-⑥⑦⑧|
⑧②①口 |-⑨⑩-|
12
①④口⑦ |①②③-|
口口②口 |④⑤⑥⑦|
口口口口
⑥③⑤口
⑩口口口
口⑪⑫口
口⑧⑨口 |-⑧⑨-|
口口口口 |⑩-⑪⑫|
13
口口口③ |-①②-|
口口口口 |③-④⑤|
口口口口
④②①⑤
口口⑦口
口⑧口⑪
⑥⑩⑨口 |⑥⑦⑧⑨|
口⑫口口 |⑩⑪⑫-|
14
口①④口 |①②③-|
①⑦②口 |④⑤⑥⑦|
⑤口口①
③口①⑥
口⑩口⑩
⑪口⑫口
口⑧⑨口 |-⑧⑨-|
口口口口 |⑩-⑪⑫|
15
⑤口①⑥ |①②③-|
口口口① |④-⑤⑥|
①④口④
③①②口
口口口口
口⑦⑪口
⑨口⑧口 |-⑦⑧⑨|
⑩口口口 |-⑩⑪-|
16
⑤①口④ |①②③-|
①⑦口口 |④⑤⑥⑦|
口②⑥①
口口①③
口口⑧口
口口⑨⑧
⑧⑪口口 |⑧⑨⑩-|
⑩⑧口⑫ |⑪-⑫-|
17
③①口口 |①---|
①②②④ |②-③④|
口口口①
口口①口
口口⑧⑫
⑨口口口
口⑤⑥口 |⑤⑥⑦⑧|
⑦⑪口⑩ |⑨⑩⑪⑫|
18
口②口口 |①---|
②①①口 |----|
①口②① |②---|
口口口口 |----|
19
口口②口 |①---|
②口①口 |----|
口②口① |②---|
口①口口 |----|
20
口口②口 |①---|
口①口② |----|
口②口① |②---|
口口①口 |----|
21
口口口口 |①---|
口口口口 |----|
①口口①
口①①口
④口⑤③
口②口口
口④③⑤ |②-③-|
②口口口 |④-⑤-|
22
口口⑤口 |①-②-|
①⑥口① |③-④-|
口口口⑤ |----|
⑥②③④ |⑤-⑥-|
23
口⑤口④ |①-②-|
⑤口口口 |③-④-|
①②③⑥ |----|
口口⑥口 |⑤-⑥-|
24
④口⑤口 |①-②-|
口③口⑤ |③-④-|
⑥口②口 |----|
口⑥口① |⑤-⑥-|
25
④①口② |----|
①口③⑥ |①-②-|
口③口⑤ |③-④-|
口口⑤口 |⑤-⑥-|
26
②口②口 |①---|
口①口口 |--②-|
口口①口 |③---|
口③口③ |----|
27
②④②④ |①---|
⑥口⑥口 |②-③-|
口①①口 |④-⑤-|
口⑤③⑦ |⑥-⑦-|
28
口②③口 |①---|
口①口① |----|
②③②③ |----|
口②③口 |②-③-|
29
①口口① |----|
⑤③③⑥ |①-②-|
口口口口 |③-④-|
②⑤⑥④ |⑤-⑥-|
30
①⑤④⑥ |①-②-|
口⑦⑧口 |③-④-|
口③⑥② |⑤-⑥-|
口⑦口⑧ |⑦-⑧-|
31
③口口口 |①-②-|
⑦口⑧④ |③-④-|
①口⑥② |⑤-⑥-|
⑤⑦口⑧ |⑦-⑧-|
32
口①口口 |①-②-|
口③口② |③-④-|
①③口④
口口④口
口口⑧⑥
⑤口⑥⑧
口口口口 |⑤-⑥-|
⑦口口口 |⑦-⑧-|
33
⑦③口⑧ |①-②-|
③⑦④口 |③-④-|
⑤①口② |⑤-⑥-|
口⑤口⑥ |⑦-⑧-|
34
口③口口 |①②③④|
⑤口②口 |⑤⑥⑦⑧|
⑦①⑥④
①口口⑧
⑩口口⑪
口⑫⑬口
口口口口 |⑨-⑩⑪|
口⑨口口 |-⑫⑬-|
35
口口口口 |①②③④|
①口口⑧ |⑤⑥⑦⑧|
口⑤⑥②
③⑦口④
口⑨口口
口⑩⑪口
⑨口口口 |⑨-⑩⑪|
⑫口口⑬ |-⑫⑬-|
36
①口口口 |①②③④|
⑦口口⑧ |⑤⑥⑦⑧|
⑤①②⑥
口③④口
口⑨口口
口⑩⑪口
口⑫⑬口 |⑨-⑩⑪|
口口口口 |-⑫⑬-|
37
口⑥⑤④ |①②③-|
口口口④ |④⑤⑥-|
①口口口
①②③口
⑦口口口
⑨口⑫⑭
口⑪口⑩ |⑦⑧⑨⑩|
⑬口口⑧ |⑪⑫⑬⑭|
38
口③②口 |①②③-|
⑤口口口 |④⑤⑥-|
①口④口
口①⑥⑥
⑦口⑫⑧
口⑨⑩⑩
⑪口口⑫ |⑦⑧⑨-|
⑨口口口 |⑩⑪⑫-|
39
口口口④ |①②③-|
①⑤口口 |④⑤⑥-|
口口口口
口③②⑥
⑦⑨⑩口
口口口⑩
⑪⑨⑧⑫ |⑦⑧⑨-|
口口⑫口 |⑩⑪⑫-|
40
口口口④ |①②③-|
口口②口 |④⑤⑥-|
口⑤⑥口
①③口⑥
口口⑧口
⑦⑪⑩⑫
⑨口口口 |⑦⑧⑨-|
口口⑫口 |⑩⑪⑫-|
41
①①④④ |①②③-|
口口口口 |④⑤⑥-|
⑤口口②
口③口⑥
⑪⑪口口
⑦⑦⑩口
口⑨⑧口 |⑦⑧⑨-|
⑨口口口 |⑩-⑪-|
42
口口①口 |①-②③|
③⑤口① |④-⑤-|
①⑤口④
口①②口
⑩口口口
口口⑦⑪
⑧口⑨口 |⑥-⑦⑧|
口口口⑥ |⑨-⑩⑪|
43
口①⑤口 |①-②③|
①②口口 |④-⑤⑥|
口口口①
④⑥①③
口口口⑨
口口⑦口
⑩⑧⑦⑨ |⑦-⑧-|
口口口口 |⑨-⑩-|
44
③①②口 |①-②-|
①③口② |--③-|
口口③口
口②①口
口口⑥口
⑤口④口
⑥④口⑤ |④---|
④⑥⑤口 |⑤-⑥-|
45
①②口① |----|
口⑥口口 |--①-|
口口⑦③ |--②③|
④口口⑤ |④⑤⑥⑦|
46
⑤口①口 |①-②③|
⑤口②① |④-⑤-|
①③口口
口①④口
口口口⑥
口⑦⑩口
⑨口⑧⑩ |⑥-⑦⑧|
⑨口口口 |⑨-⑩-|
47
⑤①②口 |①-②③|
③⑤口口 |④-⑤-|
口①口口
口口口④
口口口口
口口⑦⑥
⑧⑩口⑨ |⑥-⑦⑧|
⑩口⑨口 |⑨-⑩-|
48
⑩②①① |①-②③|
④⑩⑦⑤ |④-⑤-|
⑥⑧③⑦ |⑥-⑦⑧|
口④⑨⑤ |⑨-⑩-|
49
口口口① |①-②③|
②口口⑤ |④-⑤-|
口口③口
口④口口
⑨口⑥⑨
口⑦⑧口
⑥⑧口口 |⑥-⑦-|
口口口⑦ |⑧-⑨-|
50
口①③口 |①---|
①口口③ |②-③-|
②口口① |----|
口②①口 |----|
51
口口①口 |----|
口①口① |----|
①口①口 |①---|
口①口口 |----|
52
口①口口 |①---|
①口①口 |----|
口①口① |----|
口口①口 |----|
53
口①④口 |①②③-|
口⑤②口 |④⑤⑥-|
口③⑥口
口口口口
⑦口口⑩
口口⑫⑧
⑨⑬口口 |⑦⑧⑨⑩|
⑪口口⑭ |⑪⑫⑬⑭|
54
⑤①②口 |①-②③|
①③口口 |④-⑤-|
口口④①
口口①口
口⑩口⑥
口口⑦口
口⑧口口 |⑥-⑦⑧|
口口口⑨ |⑨-⑩-|
55
⑨口①⑧ |①-②③|
⑦②口口 |④-⑤⑥|
口⑥③⑫ |⑦⑧⑨⑩|
⑪④⑤⑩ |⑪-⑫-|
56
口口⑤口 |①-②③|
口①②⑤ |④-⑤-|
①③口口
口口④口
⑥⑦口⑥
⑦⑧⑧口
口口口口 |⑥--⑦|
口口口口 |--⑧-|
57
口口口口 |①---|
口口口④ |②-③④|
口口③口
①②②①
⑥口⑤口
口口口口
口⑦口口 |⑤-⑥-|
⑧口口口 |⑦-⑧-|
58
口①口口 |①②③④|
①②③口 |⑤⑥⑦-|
④口⑤①
口⑥①⑦
⑨口⑧口
⑪口口⑩
口⑬口⑫ |⑧⑨⑩⑪|
口口⑭口 |⑫⑬⑭-|
59
口④口③ |①②③-|
口②⑥⑤ |④⑤⑥⑦|
①口口口
口⑦口口
⑫口⑧口
⑨⑬口口
口⑩⑭口 |⑧⑨⑩⑪|
口口⑪⑮ |⑫⑬⑭⑮|
60
口①⑧② |①②③④|
⑨⑬⑥⑩ |⑤⑥⑦-|
③⑦⑭④ |⑧⑨⑩⑪|
⑤⑪⑫口 |⑫⑬⑭-|
61
①①②② |①---|
口口口口 |②---|
②口口①
②口口①
⑧口口⑩
④③③⑦
口⑤⑥口 |③--④⑤⑥|
⑩口口⑨ |⑦⑧⑨⑩|
62
口①①口 |①---|
口口口口 |----|
①口口① |----|
口口口口 |----|
不確定度: 0