OVERHEAT -Type J-
DOUBLE IMPACT

EXTREME

Level: 10
BPM: 155
Notes: 928

1
口口口口 |----|
口口口口 |----|
口口口口 |----|
口口口口 |----|
2
①④⑦① |①②③④|
②⑤⑧口 |⑤⑥⑦⑧|
③⑥口口
口口口口

⑭口口口
⑮口口口
⑯口⑨口 |⑨⑩⑪⑫|
⑩⑪⑫⑬ |⑬⑭⑮⑯|
3
口①④① |①②③④|
口②⑤④ |⑤⑥⑦⑧|
口③⑥⑦
口⑦⑧口

⑩⑭口口
⑪⑮口口
⑫⑯口口 |⑨⑩⑪⑫|
⑬口口⑨ |⑬⑭⑮⑯|
4
⑤⑬⑨① |①②③④|
⑥⑭⑩② |⑤⑥⑦⑧|
⑦⑮⑪③ |⑨⑩⑪⑫|
⑧⑯⑫④ |⑬⑭⑮⑯|
5
①口⑤① |①②③④|
⑤口⑥② |⑤⑥⑦⑧|
口口⑦③
口口⑧④

口⑬口⑭
口⑮口⑯
⑨⑩口口 |⑨⑩⑪⑫|
⑪⑫口口 |⑬⑭⑮⑯|
6
①⑬⑨⑩ |①②③④|
⑤⑭②⑫ |⑤⑥⑦⑧|
⑪⑮③⑥ |⑨⑩⑪⑫|
⑧⑯④⑦ |⑬⑭⑮⑯|
7
①⑬⑨⑩ |①②③④|
⑤⑭②⑫ |⑤⑥⑦⑧|
⑪⑮③⑥ |⑨⑩⑪⑫|
⑧⑯④⑦ |⑬⑭⑮⑯|
8
①⑨⑧⑯ |①②③④|
②⑩⑦⑮ |⑤⑥⑦⑧|
⑥⑭③⑫ |⑨⑩⑪⑫|
⑤⑬④⑪ |⑬⑭⑮⑯|
9
①⑨⑧口 |①②③④|
②⑭⑦⑮ |⑤⑥⑦⑧|
⑥⑫③⑬ |⑨-⑩⑪|
⑤⑩④⑪ |⑫⑬⑭⑮|
10
①口⑥⑤ |①-②-③-④--⑤--|
②口⑦口 |⑥⑦⑧⑨|
③⑨口口
④⑧口口

口⑬口口
口⑫口口
⑰口⑪⑮ |⑩⑪⑫⑬|
⑯口⑩⑭ |⑭⑮⑯⑰|
11
①⑨⑩③ |①②③④|
②⑪⑫④ |⑤⑥⑦⑧|
⑬⑤⑦⑭ |⑨⑩⑪⑫|
⑮⑥⑧⑯ |⑬⑭⑮⑯|
12
①⑤⑦③ |①-②-|
②⑥⑧④ |③-④-|
⑤①③⑦ |⑤-⑥-|
⑥②④⑧ |⑦-⑧-|
13
①口口⑦ |①②③④⑤⑥|
②口口⑩ |⑦⑧⑨⑩|
⑨⑤③口
⑧⑥④口

⑮⑪⑰口
⑯⑫⑱口
口⑲A⑬ |⑪⑫⑬⑭⑮⑯|
口⑳B⑭ |⑰⑱⑲⑳AB|
14
口⑤口③ |①-②-③-④--⑤--|
⑨⑦口④ |⑥⑦⑧⑨|
②口口⑥
①口口⑧

⑪⑰⑩⑯
口口口口
口⑬⑫口 |⑩⑪⑫⑬|
口⑮⑭口 |⑭⑮⑯⑰|
15
口口口口 |①②③④|
⑥④③⑤ |⑤⑥⑦⑧|
②口口①
⑧口口⑦

口⑫⑪口
口⑯⑮口
口⑭⑬口 |⑨⑩⑪⑫|
口⑩⑨口 |⑬⑭⑮⑯|
16
①口口③ |①②③④⑤⑥|
②口口④ |----|
口口口⑤
口口口⑥

⑬口⑨⑮
⑭口⑩⑯
⑦口⑪⑰ |⑦⑧⑨⑩⑪⑫|
⑧口⑫⑱ |⑬⑭⑮⑯⑰⑱|
17
⑥①③⑦ |①---|
⑥④③⑦ |②-③-|
②①⑤⑤ |④-⑤-|
②④口口 |⑥-⑦-|
18
⑤⑧④口 |①-②-|
⑥④口口 |③-④-|
③②⑤⑤ |⑤-⑥-|
①⑦①口 |⑦-⑧-|
19
⑤⑧②② |①-②-|
④⑥⑤⑤ |③-④-|
①②口口 |⑤-⑥-|
③⑦①④ |⑦-⑧-|
20
⑤⑧④口 |①-②-|
⑥④口口 |③-④-|
③②⑤⑤ |⑤-⑥-|
①⑦①口 |⑦-⑧-|
21
⑤口②② |①-②-|
④⑥⑤⑤ |③-④-|
①②⑦⑦ |⑤-⑥-|
③⑦①④ |⑦---|
22
⑤⑧④口 |①-②-|
⑥④口口 |③-④-|
③②⑤⑤ |⑤-⑥-|
①⑦①口 |⑦-⑧-|
23
⑤⑧②② |①-②-|
④⑥⑤⑤ |③-④-|
①②口口 |⑤-⑥-|
③⑦①④ |⑦-⑧-|
24
⑤⑧④口 |①-②-|
⑥④⑦⑦ |③-④-|
③②⑤⑤ |⑤-⑥-|
①⑦①⑨ |⑦-⑧⑨|
25
口口③口 |①-②-|
口④口口 |③④⑤⑥|
①②⑤口
口⑥口口

⑧口口⑦
⑩口口⑨
⑫口口⑪ |⑦⑧⑨⑩|
⑭口口⑬ |⑪⑫⑬⑭|
26
⑩②④⑫ |①②③④|
⑭①③⑯ |⑤⑥⑦⑧|
⑨⑥⑧⑪ |⑨⑩⑪⑫|
⑬⑤⑦⑮ |⑬⑭⑮⑯|
27
⑥①③⑧ |①②③④|
⑭②④⑯ |⑤⑥⑦⑧|
⑤⑩⑫⑦ |⑨⑩⑪⑫|
⑬⑨⑪⑮ |⑬⑭⑮⑯|
28
①①④④ |①---|
②口口口 |----|
②口口口 |②---|
口口③③ |③-④-|
29
②②口口 |①-②-|
口口口③ |--③-|
口口口③
①①口口

口口口⑥
⑧口口口
口口⑤口 |-④⑤-|
⑦口口④ |⑥-⑦⑧|
30
⑩②④⑫ |①②③④|
⑭①③⑯ |⑤⑥⑦⑧|
⑨⑥⑧⑪ |⑨⑩⑪⑫|
⑬⑤⑦⑮ |⑬⑭⑮⑯|
31
⑥①③⑧ |①②③④|
⑭②④⑯ |⑤⑥⑦⑧|
⑤⑩⑫⑦ |⑨⑩⑪⑫|
⑬⑨⑪⑮ |⑬⑭⑮⑯|
32
①①口口 |①---|
④口口③ |----|
②④③口 |--②-|
口②口口 |③-④-|
33
③口口① |①--②|
口口①口 |③---|
口口口口
②口口口

⑮⑭⑬⑫
⑪⑩⑨⑧
⑦⑥⑤④ |④⑤⑥⑦⑧⑨|
口口口口 |⑩⑪⑫⑬⑭⑮|
34
口口⑦⑤ |①---|
口口④③ |②-③-|
口口②⑥ |④-⑤-|
口口①① |⑥-⑦-|
35
②口口口 |①---|
④⑤口口 |----|
⑦③口口 |--②③|
⑥口①① |④⑤⑥⑦|
36
口口⑦① |①---|
口口④⑥ |②-③-|
口口⑤③ |④-⑤-|
口口②口 |⑥-⑦-|
37
口口口① |①---|
口口口口 |----|
口口口口 |----|
口口口口 |----|
38
②②口口 |①---|
④⑤口口 |②---|
⑥③口口 |③-④-|
①①口口 |⑤-⑥-|
39
①①口口 |①---|
③口口③ |--②-|
口④④口 |③---|
口②②口 |--④-|
40
①口口① |①---|
口③③口 |--②-|
口口口口 |③---|
②④④② |--④-|
41
①①①① |①---|
口口口口 |----|
口口口口 |----|
口口口口 |----|
42
①⑩口⑧ |①-②③|
口⑥④口 |④-⑤⑥|
口口③⑦ |-⑦⑧-|
⑤⑨②口 |⑨-⑩-|
43
口口口口 |①-②-|
①口口② |③-④-|
③口④口
口口口口

口⑩口⑫
口⑨口⑪
口⑥口⑧ |⑤⑥⑦⑧|
口⑤口⑦ |⑨⑩⑪⑫|
44
①⑩口⑧ |①-②③|
口⑥④口 |④-⑤⑥|
口口③⑦ |-⑦⑧-|
⑤⑨②口 |⑨-⑩-|
45
②⑭④⑯ |①②③④|
①⑬③⑮ |⑤⑥⑦⑧|
⑥⑩⑧⑫ |⑨⑩⑪⑫|
⑤⑨⑦⑪ |⑬⑭⑮⑯|
46
①⑩口⑧ |①-②③|
口⑥④口 |④-⑤⑥|
口口③⑦ |-⑦⑧-|
⑤⑨②口 |⑨-⑩-|
47
口口口口 |①-②-|
①口口② |③-④-|
③口④口
口口口口

口⑩口⑫
口⑨口⑪
口⑥口⑧ |⑤⑥⑦⑧|
口⑤口⑦ |⑨⑩⑪⑫|
48
①⑩口⑧ |①-②③|
口⑥④口 |④-⑤⑥|
口口③⑦ |-⑦⑧-|
⑤⑨②口 |⑨-⑩-|
49
②⑭④⑯ |①②③④|
①⑬③⑮ |⑤⑥⑦⑧|
⑥⑩⑧⑫ |⑨⑩⑪⑫|
⑤⑨⑦⑪ |⑬⑭⑮⑯|
50
⑥口④口 |①②③④|
⑤口③口 |⑤⑥⑦⑧|
②口口⑧
①口口⑦

口口⑯⑫
口口⑮⑪
⑭⑩口口 |⑨⑩⑪⑫|
⑬⑨口口 |⑬⑭⑮⑯|
51
②口口⑧ |①②③④|
①口口⑦ |⑤⑥⑦⑧|
口⑥④口
口⑤③口

⑬⑨口口
⑭⑩口口
口口⑮⑪ |⑨⑩⑪⑫|
口口⑯⑫ |⑬⑭⑮⑯|
52
口口④⑧ |①②③④|
口口③⑦ |⑤⑥⑦⑧|
②⑥口口
①⑤口口

⑩口⑯口
⑨口⑮口
⑭口口⑫ |⑨⑩⑪⑫|
⑬口口⑪ |⑬⑭⑮⑯|
53
⑤①⑫⑯ |①②③④|
⑥②⑪⑮ |⑤⑥⑦⑧|
⑩⑭③⑦ |⑨⑩⑪⑫|
⑨⑬④⑧ |⑬⑭⑮⑯|
54
①⑤⑯⑫ |①②③④|
②⑥⑮⑪ |⑤⑥⑦⑧|
⑩⑭③⑦ |⑨⑩⑪⑫|
⑨⑬④⑧ |⑬⑭⑮⑯|
55
②⑥⑯⑫ |①②③④|
①⑤⑮⑪ |⑤⑥⑦⑧|
⑩⑭④⑧ |⑨⑩⑪⑫|
⑨⑬③⑦ |⑬⑭⑮⑯|
56
④②口口 |①②③-|
⑤①口口 |④⑤⑥-|
⑥口口口
口口③③

口⑪口⑦
口⑩口⑦
口⑨⑫口 |⑦-⑧⑨|
口⑧⑬口 |⑩⑪⑫⑬|
57
①⑨口⑤ |①②③④|
②⑩⑬⑥ |⑤⑥⑦⑧|
③⑪口⑦ |⑨⑩⑪⑫|
④⑫⑬⑧ |⑬---|
58
①⑤口① |①②③④|
②⑥口① |⑤⑥⑦⑧|
③⑦口口
④⑧口口

⑬口⑨口
⑭口⑩口
⑮口⑪⑨ |⑨⑩⑪⑫|
⑯口⑫⑨ |⑬⑭⑮⑯|
59
口①⑤① |①②③④|
口②⑥① |⑤⑥⑦⑧|
口③⑦口
口④⑧口

⑨⑬口口
⑩⑭口口
⑪⑮口⑨ |⑨⑩⑪⑫|
⑫⑯口⑨ |⑬⑭⑮⑯|
60
⑤口①① |①②③④|
⑥口②① |⑤⑥⑦⑧|
⑦口③口
⑧口④口

口⑨⑬口
口⑩⑭口
口⑪⑮⑨ |⑨⑩⑪⑫|
口⑫⑯⑨ |⑬⑭⑮⑯|
61
①⑤口① |①②③④|
②⑥口① |⑤⑥⑦⑧|
③⑦口口
④⑧口口

⑬口⑨口
⑭口⑩口
⑮口⑪⑨ |⑨⑩⑪⑫|
⑯口⑫⑨ |⑬⑭⑮⑯|
62
⑨①⑯⑧ |①②③④|
⑩②⑮⑦ |⑤⑥⑦⑧|
⑪③⑭⑥ |⑨⑩⑪⑫|
⑫④⑬⑤ |⑬⑭⑮⑯|
63
⑫①⑯⑤ |①②③④|
⑪②⑮⑥ |⑤⑥⑦⑧|
⑩③⑭⑦ |⑨⑩⑪⑫|
⑨④⑬⑧ |⑬⑭⑮⑯|
64
⑫①⑯⑧ |①②③④|
⑪②⑮⑦ |⑤⑥⑦⑧|
⑩③⑭⑥ |⑨⑩⑪⑫|
⑨④⑬⑤ |⑬⑭⑮⑯|
65
口①口口 |①-②③|
⑦④口⑥ |④⑤⑥⑦|
⑤口口④
③口口②

⑨⑬⑫⑧
口口口口
口⑧口口 |⑧⑨⑩⑪|
⑮⑪⑩⑭ |⑫⑬⑭⑮|
66
②口口口 |①---|
③口①口 |②③④⑤|
口④①口
口⑤口口

口⑪⑬⑥
口⑩⑫⑦
口口⑨口 |⑥⑦⑧⑨|
口口⑧口 |⑩⑪⑫⑬|
67
①口口口 |①②③④|
②口口口 |⑤⑥⑦⑧|
⑨⑤⑦③ |⑨⑩--|
⑩⑥⑧④ |----|
68
口口口口 |①---|
口口口口 |----|
口口口口 |----|
口①口① |----|


不確定度: 0

最終更新:2013年04月29日 17:31