Unlimited Alchemist
BLOOD STAIN CHILD

BASIC

Level: 2
BPM: 220
Notes: 159

BPM: 217
1
口口口口 |----|
口口口口 |----|
口口口口 |----|
口口口口 |----|
2
口口口口 |①---|
口口口口 |----|
口②口口 |②---|
口①口口 |----|
3
口②口口 |①---|
口①口口 |----|
口口口口 |②---|
口口口口 |----|
4
①口口口 |①---|
口口口口 |----|
口口口口 |----|
口口口口 |----|

BPM: 220
5
口口①口 |①---|
口口口口 |----|
口口口口 |----|
口口口口 |----|
6
口口口口 |①---|
口口口口 |----|
口口②口 |②---|
口口①口 |----|
7
口口②口 |①---|
口口①口 |----|
口口口口 |②---|
口口口口 |----|
8
口口口① |①---|
口口口口 |----|
口口口口 |----|
口口口口 |----|
9
口①口口 |①---|
口口口口 |----|
口口口口 |----|
口口口口 |----|
10
口口口口 |①---|
口口口口 |----|
口口口口 |----|
口①口口 |----|
11
口口口口 |①---|
口口口口 |----|
口口①口 |----|
口口口口 |----|
12
口口口口 |①---|
口口口口 |----|
口①口口 |----|
口口口口 |----|
13
口口口口 |①---|
口口①口 |----|
口口口口 |----|
口口口口 |----|
14
口口口口 |①---|
口口口口 |----|
口②口口 |②---|
口①口口 |----|
15
口②口口 |①---|
口①口口 |----|
口口口口 |②---|
口口口口 |----|
16
①口口口 |①---|
口口口口 |----|
口口口口 |----|
口口口口 |----|
17
口口①口 |①---|
口口口口 |----|
口口口口 |----|
口口口口 |----|

BPM: 221
18
口口口口 |①---|
口口②口 |----|
口口①口 |②---|
口口口口 |----|
19
口②①口 |①---|
口口口口 |----|
口口口口 |②---|
口口口口 |----|
20
口口口口 |①---|
口①口口 |----|
口②口口 |②---|
口口口口 |----|
21
口口口口 |①---|
口口口口 |----|
口口口口 |②---|
口①②口 |----|

BPM: 220
22
口口口口 |①---|
②②口口 |----|
口口①① |----|
口口口口 |②---|
23
口口口口 |----|
口口口口 |----|
口口口口 |----|
口口口口 |----|
24
口口口口 |----|
口口口口 |----|
口口口口 |----|
口口口口 |----|
25
口口口口 |①---|
口①①口 |----|
口②②口 |②---|
口口口口 |----|
26
口口口口 |①---|
口口口口 |----|
口口口口 |----|
口①①口 |----|
27
口口口口 |----|
口口口口 |----|
口口口口 |----|
口口口口 |----|
28
口口口口 |①---|
①口口口 |----|
②口口口 |②---|
口口口口 |----|
29
口口口口 |①---|
口口口① |----|
口口口② |②---|
口口口口 |----|
30
口口口口 |①---|
口①口口 |----|
口②口口 |②---|
口口口口 |----|
31
口口口口 |①---|
口口①口 |----|
口口②口 |②---|
口口口口 |----|
32
口口口口 |①---|
①口口口 |----|
②口口口 |②---|
口口口口 |----|
33
口口口口 |①---|
口口口① |----|
口口口② |②---|
口口口口 |----|
34
口口口口 |①---|
口①①口 |----|
口口口口 |----|
口口口口 |----|
35
口口口口 |----|
口口口口 |----|
口口口口 |----|
口口口口 |----|
36
口①①口 |①---|
口口口口 |----|
口口口口 |----|
口口口口 |----|
37
口口口口 |①---|
口①①口 |----|
口口口口 |----|
口口口口 |----|
38
口口口口 |①---|
②口口口 |----|
口①①口 |②---|
口口口口 |----|
39
口口口口 |①---|
口口口口 |----|
①口口口 |②---|
②口口口 |----|
40
口口口口 |①---|
口口口口 |----|
口口口② |②---|
口口口① |----|
41
口口口② |①---|
口口口① |----|
口口口口 |②---|
口口口口 |----|
42
口口口口 |①---|
口①①口 |----|
口口口口 |----|
口口口口 |----|
43
口口口口 |----|
口口口口 |----|
口口口口 |----|
口口口口 |----|
44
口①①口 |①---|
口口口口 |----|
口口口口 |----|
口口口口 |----|
45
口口口口 |①---|
口①①口 |----|
口口口口 |----|
口口口口 |----|
46
口口口口 |①---|
②口口口 |----|
口①①口 |②---|
口口口口 |----|
47
口口口口 |①---|
口口口口 |----|
①口口口 |----|
口口口口 |----|
48
口口口口 |①---|
口口口口 |----|
口口口② |②---|
口口口① |----|
49
口口口② |①---|
口口口① |----|
口口口口 |②---|
口口口口 |----|
50
口①口口 |①---|
口②口口 |----|
口口口口 |②---|
口口口口 |----|
51
口口口口 |①---|
口口口口 |----|
口①口口 |②---|
口②口口 |----|
52
口口口口 |①---|
口口口口 |----|
口口口口 |----|
①口口口 |----|
53
口口口口 |①---|
口口口口 |----|
口口口口 |----|
口口①口 |----|
54
口口①口 |①---|
口口②口 |----|
口口口口 |②---|
口口口口 |----|
55
口口口口 |①---|
口口口口 |----|
口口①口 |②---|
口口②口 |----|
56
口口口口 |①---|
口口口口 |----|
口口口口 |----|
口口口① |----|
57
口口口口 |①---|
口口口口 |----|
口口口口 |----|
口①口口 |----|
58
口口口口 |①---|
口口口口 |----|
口口口口 |----|
口口①口 |----|
59
口口口口 |①---|
口①口口 |----|
口口口口 |----|
口口口口 |----|
60
口口口口 |①---|
口口口口 |----|
口口口口 |----|
口①口口 |----|
61
口口口口 |①---|
口口①口 |----|
口口口口 |----|
口口口口 |----|
62
口①口口 |①---|
口②口口 |----|
口口口口 |②---|
口口口口 |----|
63
口口口口 |①---|
口口口口 |----|
口①口口 |②---|
口②口口 |----|
64
口口口口 |①---|
口口口口 |----|
口口口口 |----|
①口口口 |----|
65
口口口口 |①---|
口口口口 |----|
口口口口 |----|
口口①口 |----|
66
口口口口 |①---|
口口②口 |----|
口口①口 |②---|
口口口口 |----|
67
口②①口 |①---|
口口口口 |----|
口口口口 |②---|
口口口口 |----|
68
口口口口 |①---|
口①口口 |----|
口②口口 |②---|
口口口口 |----|
69
口口口口 |①---|
口口口口 |----|
口口口口 |②---|
口①②口 |----|
70
口口口口 |①---|
②②口口 |----|
口口①① |----|
口口口口 |②---|
71
口口口口 |----|
口口口口 |----|
口口口口 |----|
口口口口 |----|
72
口口口口 |①---|
①口口口 |----|
②口口口 |②---|
口口口口 |----|
73
口口口口 |①---|
口口口① |----|
口口口② |②---|
口口口口 |----|
74
口口口口 |①---|
口①①口 |----|
口口口口 |----|
口口口口 |----|
75
口口口口 |----|
口口口口 |----|
口口口口 |----|
口口口口 |----|
76
口①①口 |①---|
口口口口 |----|
口口口口 |----|
口口口口 |----|
77
口口口口 |①---|
口①①口 |----|
口口口口 |----|
口口口口 |----|
78
口口口口 |①---|
②口口口 |----|
口①①口 |②---|
口口口口 |----|
79
口口口口 |①---|
口口口口 |----|
①口口口 |②---|
②口口口 |----|
80
口口口口 |①---|
口口口口 |----|
口口口② |②---|
口口口① |----|
81
口口口② |①---|
口口口① |----|
口口口口 |②---|
口口口口 |----|
82
口口口口 |①---|
口①①口 |----|
口口口口 |----|
口口口口 |----|
83
口口口口 |----|
口口口口 |----|
口口口口 |----|
口口口口 |----|
84
口①①口 |①---|
口口口口 |----|
口口口口 |----|
口口口口 |----|
85
口口口口 |①---|
口①①口 |----|
口口口口 |----|
口口口口 |----|
86
口口口口 |①---|
②口口口 |----|
口①①口 |②---|
口口口口 |----|
87
口口口口 |①---|
口口口口 |----|
①口口口 |----|
口口口口 |----|
88
口口口口 |①---|
口口口口 |----|
口口口② |②---|
口口口① |----|
89
口口口② |①---|
口口口① |----|
口口口口 |②---|
口口口口 |----|
90
口①口口 |①---|
口②口口 |----|
口口口口 |②---|
口口口口 |----|
91
口口口口 |①---|
口口口口 |----|
口①口口 |②---|
口②口口 |----|
92
口口口口 |①---|
口口口口 |----|
口口口口 |----|
①口口口 |----|
93
口口口口 |①---|
口口口口 |----|
口口口口 |----|
口口①口 |----|
94
口口口口 |①---|
口口口口 |----|
口口②口 |②---|
口口①口 |----|
95
口口②口 |①---|
口口①口 |----|
口口口口 |②---|
口口口口 |----|
96
口口口① |①---|
口口口口 |----|
口口口口 |----|
口口口口 |----|


不確定度: 0

最終更新:2013年03月27日 21:00