Unlimited Alchemist
BLOOD STAIN CHILD

ADVANCED

Level: 6
BPM: 220
Notes: 403

BPM: 217
1
口口口口 |----|
口口口口 |----|
口口口口 |----|
口口口口 |----|
2
①口①口 |①---|
口②口② |----|
口口口口 |②---|
口口口口 |----|
3
口④口口 |①---|
口口③口 |----|
口②口② |②---|
①口①口 |③-④-|
4
口口口口 |----|
口口口口 |----|
口口口口 |----|
口口口口 |----|

BPM: 220
5
口口口④ |①-②-|
③⑦口口 |③-④-|
口①⑥口 |--⑤-|
口⑤②口 |⑥-⑦-|
6
①③口口 |①---|
口口②口 |----|
口口④口 |②-③-|
口口口口 |--④-|
7
口口口口 |①-②-|
⑤口⑧④ |③-④-|
口③口⑥ |⑤-⑥-|
①⑦口② |⑦-⑧-|
8
口口口口 |----|
口口口口 |----|
口口口口 |----|
口口口口 |----|
9
口口④口 |①-②-|
③⑦口口 |③-④-|
口①⑥口 |--⑤-|
口⑤②口 |⑥-⑦-|
10
口口口口 |----|
口口口口 |----|
口口口口 |----|
口口口口 |----|
11
口①口① |①---|
口口③口 |--②-|
口②口② |--③-|
③口口口 |----|
12
口口口口 |----|
口口口口 |----|
口口口口 |----|
口口口口 |----|
13
①口①口 |①---|
口②口② |--②-|
口口③口 |--③-|
③口口口 |----|
14
①口①口 |①---|
口②口② |----|
口口口口 |②---|
口口口口 |----|
15
口④口口 |①---|
口口③口 |----|
口②口② |②---|
①口①口 |③-④-|
16
口口口口 |----|
口口口口 |----|
口口口口 |----|
口口口口 |----|
17
口口口④ |①-②-|
③⑦口口 |③-④-|
口①⑥口 |--⑤-|
口⑤②口 |⑥-⑦-|

BPM: 221
18
④口③口 |----|
口口口② |①---|
口口口口 |②-③-|
口口口① |--④-|
19
口②口① |----|
③口口口 |①---|
口口口口 |②-③-|
④口口口 |--④-|
20
口口①口 |----|
口②口口 |①---|
口口③口 |②---|
④口口口 |③-④-|
21
口口口口 |----|
口口③口 |①---|
口②口口 |②---|
口口口① |③---|

BPM: 220
22
口口口口 |①---|
口③③口 |--②-|
②口口② |----|
口①①口 |③---|
23
口口口口 |----|
口口口口 |----|
口口口口 |----|
口口口口 |----|
24
口口口口 |----|
口口口口 |----|
口口口口 |----|
口口口口 |----|
25
口口口口 |①---|
①口口② |--②-|
①③③② |--③-|
口口口口 |----|
26
①口口① |①---|
口口口口 |----|
口口口口 |----|
口口口口 |----|
27
口口口口 |----|
口①①口 |①---|
口口口口 |----|
口口口口 |----|
28
口①①口 |----|
②口口② |①---|
③口口③ |②---|
口口口口 |③---|
29
口口口口 |----|
口③③口 |①---|
口②②口 |②---|
口①①口 |③---|
30
口口口口 |----|
①口口② |①---|
①口口② |②---|
口③③口 |③---|
31
口口①口 |--①-|
口①口口 |----|
口口口口 |----|
口口口口 |----|
32
口①①口 |----|
口②②口 |①---|
口口口口 |②---|
口③③口 |③---|
33
口口口口 |----|
②口口① |①---|
②口口① |②---|
口③③口 |③---|
34
口①①口 |①---|
口①①口 |----|
口口口口 |----|
口口口口 |----|
35
口口口口 |----|
口口口口 |----|
口①①口 |----|
口口口口 |①---|
36
口口口① |①---|
①口口口 |----|
口口口口 |----|
口口口口 |----|
37
①口口口 |①---|
口口口① |----|
口口口口 |----|
口口口口 |----|
38
②④口③ |①---|
②④口③ |②---|
口①①⑤ |③---|
口口⑤口 |④-⑤-|
39
①口口② |----|
①口口② |①---|
③口口口 |②---|
口③口口 |③---|
40
①③口② |----|
①③口② |①---|
口口口④ |②---|
口口④口 |③-④-|
41
①口口② |----|
①口口② |①---|
③口口口 |②---|
口③口口 |③---|
42
口①①口 |①---|
口①①口 |----|
口口口口 |----|
口口口口 |----|
43
口口口口 |----|
口口口① |----|
①口口口 |----|
口口口口 |①---|
44
口口口① |①---|
①②口口 |----|
口口②口 |----|
口口口口 |②---|
45
①口口口 |①---|
口口口① |----|
口口口口 |----|
②口口② |②---|
46
②④口③ |①---|
②④口③ |②---|
口①①⑤ |③---|
口口⑤口 |④-⑤-|
47
口口口口 |----|
口口口口 |----|
口口口口 |----|
口口口口 |----|
48
①③口② |----|
①③口② |①---|
口口口④ |②---|
口口④口 |③-④-|
49
②口口③ |--①-|
②口①③ |②---|
④口口口 |③---|
①④口口 |④---|
50
口①①口 |①---|
口②②口 |----|
口口口口 |②---|
口口口口 |----|
51
口④口口 |①---|
②口口② |----|
口口③口 |②---|
①口口① |③-④-|
52
口口口口 |----|
口口口口 |----|
口口口口 |----|
口口口口 |----|
53
口口口口 |①---|
②口口① |--②-|
①③口② |--③-|
口口③口 |----|
54
口①①口 |①---|
口②②口 |----|
口口口口 |②---|
口口口口 |----|
55
口④口口 |①---|
②口口② |----|
口口③口 |②---|
①口口① |③-④-|
56
口口口口 |----|
口口口口 |----|
口口口口 |----|
口口口口 |----|
57
口口口口 |①---|
②口口① |--②-|
①③口② |--③-|
口口③口 |----|
58
口口口口 |----|
口口口口 |----|
口口口口 |----|
口口口口 |----|
59
口①口① |①---|
口口③口 |--②-|
口②口② |--③-|
③口口口 |----|
60
口口口口 |----|
口口口口 |----|
口口口口 |----|
口口口口 |----|
61
①口①口 |①---|
口②口② |--②-|
口口③口 |--③-|
③口口口 |----|
62
①口①口 |①---|
口②口② |----|
口口口口 |②---|
口口口口 |----|
63
口④口口 |①---|
口口③口 |----|
口②口② |②---|
①口①口 |③-④-|
64
口口口口 |----|
口口口口 |----|
口口口口 |----|
口口口口 |----|
65
口口口④ |①-②-|
③⑦口口 |③-④-|
口①⑥口 |--⑤-|
口⑤②口 |⑥-⑦-|
66
④口③口 |----|
口口口② |①---|
口口口口 |②---|
口口口① |③-④-|
67
口②口① |----|
口口③口 |①---|
④口口口 |②---|
口口口口 |③-④-|
68
口口①口 |----|
口②口口 |①---|
口口③口 |②---|
④口口口 |③-④-|
69
口口口口 |----|
口口③口 |①---|
口②口口 |②---|
口口口① |③---|
70
口口口口 |①---|
口③③口 |--②-|
②口口② |----|
口①①口 |③---|
71
口口口口 |----|
口口口口 |----|
口口口口 |----|
口口口口 |----|
72
口①①口 |----|
口②②口 |①---|
口④③口 |②---|
④口口③ |③-④-|
73
口口口口 |----|
②口口① |①---|
②口口① |②---|
口③③口 |③---|
74
①口口① |①---|
口口口口 |----|
口口口口 |----|
口口口口 |----|
75
口口口口 |----|
口口口口 |----|
口①①口 |----|
口口口口 |①---|
76
口口口① |①---|
①口口口 |----|
口口口口 |----|
口口口口 |----|
77
①口口口 |①---|
口口口① |----|
口口口口 |----|
口口口口 |----|
78
②口口③ |①---|
②口口③ |②---|
④①①⑤ |③-④-|
口④⑤口 |--⑤-|
79
口②②③ |--①-|
口口口③ |--②-|
④①①口 |③---|
口④口口 |④---|
80
①口口② |----|
①口口② |①---|
口③口④ |②-③-|
③口④口 |--④-|
81
①①口口 |----|
口口②② |①---|
口口口口 |②---|
口口口口 |----|
82
口口①口 |①---|
口①口口 |----|
口口口口 |----|
口口口口 |----|
83
口口口口 |----|
口口口① |----|
①口口口 |----|
口口口口 |①---|
84
口口口① |①---|
①②口口 |----|
口口②口 |----|
口口口口 |②---|
85
①口口口 |①---|
口口口① |----|
口口口口 |----|
②口口② |②---|
86
②④口③ |①---|
②④口③ |②---|
口①①口 |③---|
口口口口 |④---|
87
口口①口 |①---|
口口①口 |----|
口口口口 |----|
口口口口 |----|
88
①③口② |----|
①③口② |①---|
口口口④ |②---|
口口④口 |③-④-|
89
口口口② |----|
①口口② |①---|
①③③口 |②---|
口口口口 |③---|
90
①口①口 |①---|
口②口② |----|
口口口口 |②---|
口口口口 |----|
91
口④口口 |①---|
口口③口 |----|
口②口② |②---|
①口①口 |③-④-|
92
口口口口 |----|
口口口口 |----|
口口口口 |----|
口口口口 |----|
93
口口口口 |①---|
口口口口 |--②-|
②口②口 |----|
①口①口 |----|
94
①口①口 |①---|
口②口② |----|
口口口口 |②---|
口口口口 |----|
95
④④口口 |①---|
口口③口 |----|
口②口② |②---|
①口①口 |③-④-|


不確定度: 0

最終更新:2013年03月27日 21:00