Unlimited Alchemist
BLOOD STAIN CHILD

EXTREME

Level: 9
BPM: 220
Notes: 656

BPM: 217
1
口口口口 |----|
口口口口 |----|
口口口口 |----|
口口口口 |----|
2
①口口② |①-②-|
口③④口 |③-④-|
口⑦⑧口 |⑤-⑥-|
⑤口口⑥ |⑦-⑧-|
3
口⑦⑧口 |①-②-|
⑤口口⑥ |③-④-|
③口口④ |⑤-⑥-|
口①②口 |⑦-⑧-|
4
①口口② |①-②-|
口③④口 |③-④-|
口⑦⑧口 |⑤-⑥-|
⑤口口⑥ |⑦-⑧-|

BPM: 220
5
口⑦⑧口 |①-②-|
⑤口口⑥ |③-④-|
③口口④ |⑤-⑥-|
口①②口 |⑦-⑧-|
6
①口口② |①-②-|
口③④口 |③-④-|
口⑦⑧口 |⑤-⑥-|
⑤口口⑥ |⑦-⑧-|
7
口⑦⑧口 |①-②-|
⑤口口⑥ |③-④-|
③口口④ |⑤-⑥-|
口①②口 |⑦-⑧-|
8
①口口② |①-②-|
口③④口 |③-④-|
口⑦⑧口 |⑤-⑥-|
⑤口口⑥ |⑦-⑧-|
9
口⑦⑧口 |①-②-|
⑤口口⑥ |③-④-|
③口口④ |⑤-⑥-|
口①②口 |⑦-⑧-|
10
①口口② |①-②-|
口③④口 |③-④-|
口⑦⑧口 |⑤-⑥-|
⑤口口⑥ |⑦-⑧-|
11
口⑧⑦口 |①-②-|
⑥口口① |③-④-|
②口口⑤ |⑤-⑥-|
口④③口 |⑦-⑧-|
12
①口⑧② |①-②-|
口③④口 |③-④-|
口⑦口口 |⑤-⑥-|
⑤口口⑥ |⑦-⑧-|
13
①口口口 |①-②③|
口⑦口② |④-⑤-|
⑤口⑧④ |⑥-⑦-|
⑨③⑥口 |⑧-⑨-|
14
①④③② |①-②-|
⑤⑧⑦⑥ |③-④-|
口口口口 |⑤-⑥-|
口口口口 |⑦-⑧-|
15
口口口口 |①-②-|
口口口口 |③-④-|
①④③② |⑤-⑥-|
⑤⑥⑧⑦ |⑦-⑧-|
16
①口口① |----|
②口口② |①---|
口③③口 |②---|
口口口口 |③---|
17
口①口口 |①-②-|
口②⑦口 |③-④-|
③口⑥口 |--⑤-|
④口⑤口 |⑥-⑦-|

BPM: 221
18
⑤④口口 |①---|
③口口② |②---|
口口口口 |③-④-|
口口口① |--⑤-|
19
口口②口 |----|
③口口① |①---|
口口④口 |②-③-|
口口口口 |--④-|
20
③口口口 |----|
口口④② |①---|
口①口口 |②---|
口口口口 |③-④-|
21
口口③① |----|
口②口口 |①---|
口口口口 |②---|
口口口口 |③---|

BPM: 220
22
①口口② |①---|
口③口口 |--②-|
口口③口 |----|
②口口① |③---|
23
口口口口 |①-②-|
口口口口 |③-④-|
①⑦⑧② |⑤-⑥-|
⑤③④⑥ |⑦-⑧-|
24
①⑦⑧② |①-②-|
③⑤⑥④ |③-④-|
口口口口 |⑤-⑥-|
口口口口 |⑦-⑧-|
25
口口口口 |①---|
③③③③ |--②-|
①①②② |--③-|
①①②② |----|
26
①口口① |①-②-|
⑥口口⑤ |--③-|
口②口口 |④---|
④口③口 |⑤-⑥-|
27
口口口口 |--①-|
口④⑤口 |②---|
口⑥①口 |③-④-|
口②口③ |⑤-⑥-|
28
③口口① |①-②-|
⑦口口⑥ |③-④-|
②口口口 |⑤---|
⑤口④口 |⑥-⑦-|
29
口口口口 |--①-|
口口口口 |②---|
④口①④ |③---|
③②口③ |④---|
30
①口口口 |①-②-|
⑦③口⑥ |③-④-|
口口②口 |⑤---|
⑤口④口 |⑥-⑦-|
31
口口①口 |--①-|
口④⑤口 |②---|
口⑥口口 |③-④-|
口②口③ |⑤-⑥-|
32
①口口⑤ |①-②-|
②口口⑥ |③-④-|
③口口⑦ |⑤-⑥-|
④口口⑧ |⑦-⑧-|
33
口口②口 |①-②③|
⑤①④⑦ |④-⑤-|
口③口⑨ |⑥-⑦⑧|
⑧⑥口口 |⑨---|
34
口口口① |①---|
口口口口 |②---|
①③③口 |----|
口口口② |③---|
35
口口口口 |----|
③②②③ |①---|
口口口口 |②---|
口口口① |③---|
36
①口口口 |①---|
口口口口 |②---|
口口口① |----|
口口③② |③---|
37
口口口口 |①---|
口口⑤① |②---|
④口口口 |--③-|
①②口③ |④-⑤-|
38
①③口口 |①-②-|
⑤⑦口口 |③-④-|
口口②④ |⑤-⑥-|
口口⑥⑧ |⑦-⑧-|
39
口口②④ |①-②-|
口口⑥⑧ |③-④-|
①③口口 |⑤-⑥-|
⑤⑦口口 |⑦-⑧-|
40
①③口口 |①-②-|
⑤⑦口口 |③-④-|
口口②④ |⑤-⑥-|
口口⑥⑧ |⑦-⑧-|
41
口⑤②口 |①-②③|
⑨口⑥④ |④-⑤-|
①③⑧口 |⑥-⑦-|
⑦口口口 |⑧-⑨-|
42
口口口① |①---|
口口口口 |②---|
①③③口 |----|
口口口② |③---|
43
口口口口 |----|
③②②③ |①---|
口口口口 |②---|
口口口① |③---|
44
①口口口 |①---|
口口口口 |②---|
口③口① |----|
口口③② |③---|
45
口口口④ |①---|
口口⑤① |②---|
④口口口 |--③-|
①②口③ |④-⑤-|
46
①③口口 |①-②-|
⑤⑦口口 |③-④-|
口口②④ |⑤-⑥-|
口口⑥⑧ |⑦-⑧-|
47
口口②④ |①-②-|
口口⑥⑧ |③-④-|
①③口口 |⑤-⑥-|
⑤⑦口口 |⑦-⑧-|
48
①③口口 |①-②-|
⑤⑦口口 |③-④-|
口口②④ |⑤-⑥-|
口口⑥⑧ |⑦-⑧-|
49
口⑤②口 |①-②③|
⑨口⑥④ |④-⑤-|
①③⑧口 |⑥-⑦-|
⑦口口口 |⑧-⑨-|
50
⑤口口④ |①-②-|
口口⑥③ |③-④-|
口⑦口② |⑤-⑥-|
口口⑧① |⑦-⑧-|
51
⑤口②⑧ |①-②-|
①③⑥口 |③-④-|
口⑦④口 |⑤-⑥-|
口口口口 |⑦-⑧-|
52
口⑤口口 |--①-|
⑦③⑥④ |②-③-|
口口口② |④-⑤-|
口①口口 |⑥-⑦-|
53
口③③口 |①---|
口②口口 |--②-|
口①①口 |--③-|
口口②口 |----|
54
⑤口口④ |①-②-|
口口⑥③ |③-④-|
口⑦口② |⑤-⑥-|
口口⑧① |⑦-⑧-|
55
⑤口②⑧ |①-②-|
①③⑥口 |③-④-|
口⑦④口 |⑤-⑥-|
口口口口 |⑦-⑧-|
56
口⑤口口 |--①-|
⑦③⑥④ |②-③-|
口口口② |④-⑤-|
口①口口 |⑥-⑦-|
57
口⑤⑤口 |①-②-|
口④口⑥ |③-④-|
口①口口 |--⑤-|
③口④② |--⑥-|
58
①口口② |①-②-|
③口④口 |③-④-|
口⑦⑧口 |⑤-⑥-|
⑤口口⑥ |⑦-⑧-|
59
口⑧⑦口 |①-②-|
⑥口口① |③-④-|
②口口⑤ |⑤-⑥-|
口④③口 |⑦-⑧-|
60
①口⑧② |①-②-|
口③④口 |③-④-|
口⑦口口 |⑤-⑥-|
⑤口口⑥ |⑦-⑧-|
61
①口口口 |①-②③|
口⑦口② |④-⑤-|
⑤口⑧④ |⑥-⑦-|
⑨③⑥口 |⑧-⑨-|
62
①④③② |①-②-|
⑤⑧⑦⑥ |③-④-|
口口口口 |⑤-⑥-|
口口口口 |⑦-⑧-|
63
口口口口 |①-②-|
口口口口 |③-④-|
①④③② |⑤-⑥-|
⑤⑥⑧⑦ |⑦-⑧-|
64
①口口① |----|
②口口② |①---|
口③③口 |②---|
口口口口 |③---|
65
⑦①口口 |①-②-|
口②口口 |③-④-|
③口⑥口 |--⑤-|
④口⑤口 |⑥-⑦-|
66
⑤④口口 |①---|
③口口② |②---|
口口口口 |③---|
口口口① |④-⑤-|
67
口口②口 |----|
③口口① |①---|
口口④口 |②-③-|
口口口口 |--④-|
68
③口口口 |----|
口口④② |①---|
口①口口 |②---|
口口口口 |③-④-|
69
口口③① |----|
口②口口 |①---|
口口口口 |②---|
口口口口 |③---|
70
①口口② |①---|
口③口口 |--②-|
口口③口 |----|
②口口① |③---|
71
口口口口 |----|
口口口口 |----|
口口口口 |①---|
口口口① |----|
72
①口口⑤ |①-②-|
②口口⑥ |③-④-|
③口口⑦ |⑤-⑥-|
④口口⑧ |⑦-⑧-|
73
口口②口 |①-②③|
⑤①④⑦ |④-⑤-|
口③口⑨ |⑥-⑦⑧|
⑧⑥口口 |⑨---|
74
口口口① |①---|
口口口口 |②---|
①③③口 |----|
口口口② |③---|
75
口口口口 |----|
③②②③ |①---|
口口口口 |②---|
口口口① |③---|
76
①口口口 |①---|
口口口口 |②---|
口口口① |----|
口口③② |③---|
77
口口口口 |①---|
口口⑤① |②---|
④口口口 |--③-|
①②口③ |④-⑤-|
78
①③口口 |①-②-|
⑤⑦口口 |③-④-|
口口②④ |⑤-⑥-|
口口⑥⑧ |⑦-⑧-|
79
口口②④ |①-②-|
口口⑥⑧ |③-④-|
①③口口 |⑤-⑥-|
⑤⑦口口 |⑦-⑧-|
80
①③口口 |①-②-|
⑤⑦口口 |③-④-|
口口②④ |⑤-⑥-|
口口⑥⑧ |⑦-⑧-|
81
口⑤②口 |①-②③|
⑨口⑥④ |④-⑤-|
①③⑧口 |⑥-⑦-|
⑦口口口 |⑧-⑨-|
82
口口口① |①---|
口口口口 |②---|
①③③口 |----|
口口口② |③---|
83
口口口口 |----|
③②②③ |①---|
口口口口 |②---|
口口口① |③---|
84
①口口口 |①---|
口口口口 |②---|
口③口① |----|
口口③② |③---|
85
口口口④ |①---|
口口⑤① |②---|
④口口口 |--③-|
①②口③ |④-⑤-|
86
①③口口 |①-②-|
⑤⑦口口 |③-④-|
口口②④ |⑤-⑥-|
口口⑥⑧ |⑦-⑧-|
87
口口②④ |①-②-|
口口⑥⑧ |③-④-|
①③口口 |⑤-⑥-|
⑤⑦口口 |⑦-⑧-|
88
①③口口 |①-②-|
⑤⑦口口 |③-④-|
口口②④ |⑤-⑥-|
口口⑥⑧ |⑦-⑧-|
89
口⑤②口 |①-②③|
⑨口⑥④ |④-⑤-|
①③⑧口 |⑥-⑦-|
⑦口口口 |⑧-⑨-|
90
⑤口口④ |①-②-|
口口⑥③ |③-④-|
口⑦口② |⑤-⑥-|
口口⑧① |⑦-⑧-|
91
⑤口②⑧ |①-②-|
①③⑥口 |③-④-|
口⑦④口 |⑤-⑥-|
口口口口 |⑦-⑧-|
92
口⑤口口 |--①-|
⑦③⑥④ |②-③-|
口口口② |④-⑤-|
口①口口 |⑥-⑦-|
93
口③③口 |①---|
口②口口 |--②-|
口①①口 |--③-|
口口②口 |----|
94
⑤口口④ |①-②-|
口口⑥③ |③-④-|
口⑦口② |⑤-⑥-|
口口⑧① |⑦-⑧-|
95
⑤口②⑧ |①-②-|
①③⑥口 |③-④-|
口⑦④口 |⑤-⑥-|
⑨口口口 |⑦⑧⑨-|


不確定度: 0

最終更新:2013年03月27日 21:00