SIRIUS VI
BLOOD STAIN CHILD

BASIC

Level: 3
BPM: 200
Notes: 207

全程BPM在200附近飄忽不定
1
口口口口 |----|
口口口口 |----|
口口口口 |----|
口口口口 |----|
2
口口口口 |①---|
口口口口 |----|
口口口口 |----|
口口①① |----|
3
口口口口 |①---|
口口口口 |----|
口口①口 |----|
口口口口 |----|
4
口口口口 |①---|
①①口口 |----|
口口口口 |----|
口口口口 |----|
5
口口口口 |①---|
口②②口 |----|
口①①口 |②---|
口口口口 |----|
6
①口口① |①---|
口②口口 |----|
口口口口 |②---|
口口口口 |----|
7
口口①口 |①---|
口口口② |----|
口口口口 |②---|
口口口口 |----|
8
①口口口 |①---|
口②口口 |----|
口口口口 |②---|
口口口口 |----|
9
口口①口 |①---|
口口口② |----|
口口口口 |②---|
口口口口 |----|
10
口口口口 |①---|
口口口口 |----|
口①①口 |----|
口口口口 |----|
11
口口口口 |①---|
②口口② |----|
①口口① |②---|
口口口口 |----|
12
①口口① |①---|
口口口口 |----|
口口口口 |----|
口口口口 |----|
13
口口口口 |①---|
口①①口 |----|
口口口口 |----|
口口口口 |----|
14
①口口口 |①---|
口口口口 |----|
口口口口 |----|
口口口口 |----|
15
口口①② |①---|
口口口口 |----|
口口口口 |②---|
口口口口 |----|
16
口口口口 |①---|
口口口① |----|
口口口口 |----|
口口口口 |----|
17
口口口口 |①---|
②①口口 |----|
口口口口 |②---|
口口口口 |----|
18
口口口口 |①---|
口口口口 |----|
①口口② |②---|
口口口口 |----|
19
口口口口 |①---|
①口口② |----|
口口口口 |②---|
口口口口 |----|
20
①口口② |①---|
口口口口 |----|
口口口口 |②---|
口口口口 |----|
21
口口口口 |①---|
①口口② |----|
口口口口 |②---|
口口口口 |----|
22
口口口① |①---|
口口②口 |----|
口口口口 |②---|
口口口口 |----|
23
口口口口 |①---|
口口口口 |----|
口①口口 |②---|
②口口口 |----|
24
口口口口 |①---|
口口口口 |----|
口口②口 |②---|
口口口① |----|
25
②口口口 |①---|
口①口口 |----|
口口口口 |②---|
口口口口 |----|
26
口口口① |①---|
口口②口 |----|
口口口口 |②---|
口口口口 |----|
27
口口口口 |①---|
口口口口 |----|
口①口口 |②---|
②口口口 |----|
28
①口口口 |①---|
口②口口 |----|
口口口口 |②---|
口口口口 |----|
29
口口口口 |①---|
口口口口 |----|
口口①口 |②---|
口口口② |----|
30
口口口口 |①---|
口①①口 |----|
口口口口 |----|
口口口口 |----|
31
口口口口 |----|
口口口口 |----|
口口口口 |----|
口口口口 |----|
32
口口口口 |①---|
①口③口 |②---|
口②口④ |③---|
口口口口 |④---|
33
口口口口 |①---|
口③口① |②---|
④口②口 |③---|
口口口口 |④---|
34
口①①口 |①---|
口口口口 |----|
口口口口 |----|
口口口口 |----|
35
口口口口 |----|
口口口口 |----|
口口口口 |----|
口口口口 |----|
36
口口口口 |①---|
①口③口 |②---|
口②口④ |③---|
口口口口 |④---|
37
口口口口 |①---|
口③口① |②---|
④口②口 |③---|
口口口口 |④---|
38
口口口① |①---|
口口②口 |----|
口口口口 |②---|
口口口口 |----|
39
口口口口 |①---|
口口口口 |----|
口①口口 |②---|
②口口口 |----|
40
口口口口 |①---|
口口口口 |----|
口口②口 |②---|
口口口① |----|
41
②口口口 |①---|
口①口口 |----|
口口口口 |②---|
口口口口 |----|
42
口口口① |①---|
口口②口 |----|
口口口口 |②---|
口口口口 |----|
43
口口口口 |①---|
口口口口 |----|
口①口口 |②---|
②口口口 |----|
44
①口口口 |①---|
口②口口 |----|
口口口口 |②---|
口口口口 |----|
45
口口口口 |①---|
口口口口 |----|
口口①口 |②---|
口口口② |----|
46
口口口口 |①---|
口①①口 |----|
口口口口 |----|
口口口口 |----|
47
口口口口 |----|
口口口口 |----|
口口口口 |----|
口口口口 |----|
48
口口口口 |①---|
①口③口 |②---|
口②口④ |③---|
口口口口 |④---|
49
口口口口 |①---|
口③口① |②---|
④口②口 |③---|
口口口口 |④---|
50
口①①口 |①---|
口口口口 |----|
口口口口 |----|
口口口口 |----|
51
口口口口 |----|
口口口口 |----|
口口口口 |----|
口口口口 |----|
52
口口口口 |①---|
①口③口 |②---|
口②口④ |③---|
口口口口 |④---|
53
口口口口 |①---|
口③口① |②---|
④口②口 |③---|
口口口口 |④---|
54
口①①口 |①---|
口口口口 |----|
口口口口 |----|
口口口口 |----|
55
口口口口 |①---|
口①①口 |----|
口口口口 |----|
口口口口 |----|
56
口口口口 |①---|
口口口口 |----|
口①①口 |----|
口口口口 |----|
57
口口口口 |①---|
口口口口 |----|
口口口口 |----|
口①①口 |----|
58
口口口口 |①---|
口口口口 |----|
口口口口 |----|
口①①口 |----|
59
口口口口 |①---|
口口口口 |----|
口①①口 |----|
口口口口 |----|
60
口口口口 |①---|
口①①口 |----|
口口口口 |----|
口口口口 |----|
61
口①①口 |①---|
口口口口 |----|
口口口口 |----|
口口口口 |----|
62
口①①口 |①---|
口口口口 |----|
口口口口 |----|
口口口口 |----|
63
口口口口 |①---|
口①①口 |----|
口口口口 |----|
口口口口 |----|
64
口口口口 |①---|
口口口口 |----|
口①①口 |----|
口口口口 |----|
65
口口口口 |①---|
口口口口 |----|
口口口口 |----|
口①①口 |----|
66
口口口口 |①---|
口口口口 |----|
口口口口 |----|
口①①口 |----|
67
口口口口 |①---|
口口口口 |----|
口①①口 |----|
口口口口 |----|
68
口口口口 |①---|
口①①口 |----|
口口口口 |----|
口口口口 |----|
69
口①①口 |①---|
口口口口 |----|
口口口口 |----|
口口口口 |----|
70
口口口口 |①---|
①口口口 |----|
口口口口 |----|
口口口口 |----|
71
口口口口 |①---|
口口口口 |----|
口①口口 |----|
口口口口 |----|
72
口口口口 |①---|
口口口口 |----|
口口①口 |----|
口口口口 |----|
73
口口口口 |①---|
口②②口 |----|
口①①口 |②---|
口口口口 |----|
74
①口口① |①---|
口②口口 |----|
口口口口 |②---|
口口口口 |----|
75
口口①口 |①---|
口口口② |----|
口口口口 |②---|
口口口口 |----|
76
①口口口 |①---|
口②口口 |----|
口口口口 |②---|
口口口口 |----|
77
口口①口 |①---|
口口口② |----|
口口口口 |②---|
口口口口 |----|
78
口口口口 |①---|
口口口口 |----|
口①①口 |----|
口口口口 |----|
79
口口口口 |①---|
②口口② |----|
①口口① |②---|
口口口口 |----|
80
①口口① |①---|
口口口口 |----|
口口口口 |----|
口口口口 |----|
81
口口口口 |①---|
口①①口 |----|
口口口口 |----|
口口口口 |----|
82
①口口口 |①---|
口口口口 |----|
口口口口 |----|
口口口口 |----|
83
口口①② |①---|
口口口口 |----|
口口口口 |②---|
口口口口 |----|
84
口口口口 |①---|
口口口① |----|
口口口口 |----|
口口口口 |----|
85
口口口口 |①---|
②①口口 |----|
口口口口 |②---|
口口口口 |----|
86
口口口口 |①---|
口口口口 |----|
①口口② |②---|
口口口口 |----|
87
口口口口 |①---|
①口口② |----|
口口口口 |②---|
口口口口 |----|
88
①口口② |①---|
口口口口 |----|
口口口口 |②---|
口口口口 |----|
89
口口口口 |①---|
①口口② |----|
口口口口 |②---|
口口口口 |----|
90
口口口口 |①---|
口口口口 |----|
口口②口 |②---|
口①口口 |----|
91
口口②口 |①---|
口①口口 |----|
口口口口 |②---|
口口口口 |----|
92
口口口口 |①---|
口口口口 |----|
口②口口 |②---|
口口①口 |----|
93
口②口口 |①---|
口口①口 |----|
口口口口 |②---|
口口口口 |----|
94
①口口口 |①---|
②口口口 |②---|
③口口口 |③---|
④口口口 |④---|
95
口口口口 |①---|
口口口口 |②---|
口口口④ |③---|
口①②③ |④---|
96
口④③② |①---|
口口口① |②---|
口口口口 |③---|
口口口口 |④---|
97
①口口口 |①---|
口口口口 |----|
口口口口 |----|
口口口口 |----|


不確定度: 0

最終更新:2013年03月27日 20:59