SIRIUS VI
BLOOD STAIN CHILD

ADVANCED

Level: 7
BPM: 200
Notes: 472

全程BPM在200附近飄忽不定
1
口口口口 |----|
口口口口 |----|
口口口口 |----|
口口口口 |----|
2
①口口① |----|
口口口口 |①---|
口口口口 |--②-|
②口口② |----|
3
口口口口 |①---|
②②⑤口 |--②-|
口④①① |--③-|
③口口口 |④-⑤-|
4
①口口① |----|
口口口口 |①---|
口口口口 |--②-|
②口口② |----|
5
口④⑤口 |①---|
①⑤④① |②-③-|
口②③口 |--④-|
口③②口 |⑤---|
6
口口口口 |①---|
①④④① |②---|
①③③① |③---|
口口②② |④---|
7
口口口口 |①---|
①④④① |②---|
口③③口 |③---|
②②口口 |④---|
8
口口口口 |①---|
①④④① |②---|
口③③口 |③---|
口口②② |④---|
9
口口口口 |①---|
①④④① |②---|
口③③口 |③---|
②②口口 |④---|
10
①口③口 |①---|
①口③口 |--②-|
口②口口 |----|
口②口口 |③---|
11
口口口① |①---|
口③口① |----|
②③口口 |②---|
②口口口 |③---|
12
口口①口 |①---|
口口①口 |----|
口口口口 |----|
口口口口 |----|
13
①口口① |①---|
口口口口 |--②-|
②③③② |----|
口口口口 |③---|
14
①①口口 |①---|
口口口口 |----|
口口口口 |----|
口口口口 |----|
15
口口口口 |①---|
口口口口 |----|
①①口口 |②---|
②②口口 |----|
16
口口口口 |①---|
口口口口 |----|
口口①① |----|
口口口口 |----|
17
口口②② |①---|
①①口口 |----|
口口口口 |②---|
口口口口 |----|
18
口口口口 |①---|
口口口口 |--②-|
①口口① |----|
②口口② |----|
19
①口口① |①---|
②口口② |--②-|
口口口口 |----|
口口口口 |----|
20
①口③口 |①---|
口②口④ |②---|
口口口口 |③---|
口口口口 |④---|
21
口口口口 |①---|
口口口口 |②---|
口③口① |③---|
④口②口 |④---|
22
口③口④ |①---|
①口口① |②---|
口⑤②口 |③-④-|
口口口口 |--⑤-|
23
口口口口 |①---|
口口④① |②-③-|
口口口③ |--④-|
口②⑤口 |--⑤-|
24
口②口③ |----|
口口口口 |①---|
口④①口 |②-③-|
口口口口 |--④-|
25
口口口口 |①---|
口口④① |②-③-|
口口口③ |--④-|
口②⑤口 |--⑤-|
26
口②口③ |----|
口口口口 |①---|
口④①口 |②-③-|
口口口口 |--④-|
27
⑤口口口 |①---|
口口④① |②-③-|
口口口③ |--④-|
口②口口 |--⑤-|
28
口口①① |①---|
②②口口 |②---|
口口③③ |③---|
④④口口 |④---|
29
口口①① |①---|
口口④④ |②-③-|
②②口口 |--④-|
口口③③ |----|
30
①①①① |①---|
口口口口 |----|
口口口口 |----|
口口口口 |----|
31
口口口口 |----|
口口口口 |----|
口口口口 |----|
口口口口 |----|
32
口⑥④② |①-②-|
口⑦⑦口 |③-④-|
⑤③①口 |⑤-⑥-|
口口口口 |⑦---|
33
④口口③ |①---|
①口口② |②-③-|
口③④口 |--④-|
②口口① |----|
34
口①①口 |①---|
口口口口 |----|
①口口① |----|
口口口口 |----|
35
口口口口 |----|
口口口口 |----|
口口口口 |----|
口口口口 |----|
36
口⑤③① |--①-|
口⑥⑥口 |②-③-|
④②口口 |④-⑤-|
口口口口 |⑥---|
37
④口口③ |①---|
①口口② |②-③-|
口③④口 |--④-|
②口口① |----|
38
口③口④ |①---|
口①①口 |②---|
口⑤口② |③-④-|
口①①口 |--⑤-|
39
口口口口 |①---|
口口④① |②-③-|
口口口③ |--④-|
口②⑤口 |--⑤-|
40
口②口③ |----|
口口口口 |①---|
口④①口 |②-③-|
口口口口 |--④-|
41
口口口口 |①---|
口口④① |②-③-|
口口口③ |--④-|
口②⑤口 |--⑤-|
42
口②口③ |----|
口口口口 |①---|
口④①口 |②-③-|
口口口口 |--④-|
43
⑤口口口 |①---|
口口④① |②-③-|
口口口③ |--④-|
口②口口 |--⑤-|
44
口口①① |①---|
②②口口 |②---|
口口③③ |③---|
④④口口 |④---|
45
口口①① |①---|
口口④④ |②-③-|
②②口口 |--④-|
口口③③ |----|
46
①①①① |①---|
口口口口 |----|
口口口口 |----|
口口口口 |----|
47
口口口口 |----|
口口口口 |----|
口口口口 |----|
口口口口 |----|
48
口⑤③① |--①-|
口⑥⑥口 |②-③-|
④②口口 |④-⑤-|
口口口口 |⑥---|
49
④口口③ |①---|
①口口② |②-③-|
口③④口 |--④-|
②口口① |----|
50
口①①口 |①---|
口口口口 |----|
①口口① |----|
口口口口 |----|
51
口口口口 |----|
口口口口 |----|
口口口口 |----|
口口口口 |----|
52
口⑤③① |--①-|
口⑥⑥口 |②-③-|
④②口口 |④-⑤-|
口口口口 |⑥---|
53
④口口④ |①------②|
①口口口 |--③----④|
口口③① |----|
口②口口 |----|
54
口①①口 |①---|
口口口口 |----|
②口口② |----|
口口口口 |②---|
55
口口口口 |①---|
口口口口 |----|
口口口口 |----|
口①①口 |----|
56
口③口口 |①---|
口②③口 |--②-|
口①②口 |----|
口口①口 |③---|
57
口口口口 |----|
口口口口 |----|
口口口口 |----|
口口口口 |----|
58
口①①口 |①---|
口口口口 |----|
②口口② |----|
口口口口 |②---|
59
口口口口 |①---|
②口口② |----|
口口口口 |----|
口①①口 |②---|
60
口①口口 |①---|
口③①口 |--②-|
口②③口 |----|
口口②口 |③---|
61
①口口口 |①---|
①口口③ |--②-|
口口口③ |--③-|
口口②② |----|
62
口①①口 |①---|
口口口口 |----|
②口口② |----|
口口口口 |②---|
63
口口口口 |①---|
口口口口 |----|
口口口口 |----|
口①①口 |----|
64
口③口口 |①---|
口②③口 |--②-|
口①②口 |----|
口口①口 |③---|
65
口口口口 |----|
口口口口 |----|
口口口口 |----|
口口口口 |----|
66
口①①口 |①---|
口口口口 |----|
②口口② |----|
口口口口 |②---|
67
口口口口 |①---|
口口口口 |----|
口口口口 |----|
口①①口 |----|
68
口①口口 |①---|
口②①口 |--②-|
口③②口 |----|
口口③口 |③---|
69
口口口口 |----|
口口口口 |----|
口口口口 |----|
口口口口 |----|
70
口口口口 |①---|
口③口① |--②-|
④口口口 |----|
口②口口 |③-④-|
71
口口口口 |--①-|
口口口③ |----|
口口④口 |②---|
口②①口 |③-④-|
72
口②口口 |--①-|
口口②口 |----|
口口口口 |②---|
①口口口 |----|
73
口④⑤口 |①---|
①⑤④① |②-③-|
口②③口 |--④-|
口③②口 |⑤---|
74
口口口口 |①---|
①④④① |②---|
①③③① |③---|
口口②② |④---|
75
口口口口 |①---|
①④④① |②---|
口③③口 |③---|
②②口口 |④---|
76
口口口口 |①---|
①④④① |②---|
口③③口 |③---|
口口②② |④---|
77
口口口口 |①---|
①④④① |②---|
口③③口 |③---|
②②口口 |④---|
78
①口③口 |①---|
①口③口 |--②-|
口②口口 |----|
口②口口 |③---|
79
口口口① |①---|
口③口① |----|
②③口口 |②---|
②口口口 |③---|
80
口口①口 |①---|
口口①口 |----|
口口口口 |----|
口口口口 |----|
81
①口口① |①---|
口口口口 |--②-|
②③③② |----|
口口口口 |③---|
82
①①口口 |①---|
口口口口 |----|
口口口口 |----|
口口口口 |----|
83
口口口口 |①---|
口口口口 |----|
①①口口 |②---|
②②口口 |----|
84
口口口口 |①---|
口口口口 |----|
口口①① |----|
口口口口 |----|
85
口口②② |①---|
①①口口 |----|
口口口口 |②---|
口口口口 |----|
86
口口口口 |①---|
口口口口 |--②-|
①口口① |----|
②口口② |----|
87
①口口① |①---|
②口口② |--②-|
口口口口 |----|
口口口口 |----|
88
①口③口 |①---|
口②口④ |②---|
口口口口 |③---|
口口口口 |④---|
89
口口口口 |①---|
口口口口 |②---|
口③口① |③---|
④口②口 |④---|
90
口②口口 |①---|
①口口① |②---|
口口口口 |--③-|
口口③口 |----|
91
口口②口 |①---|
③口⑤口 |--②-|
口④口口 |--③-|
口①口口 |④-⑤-|
92
口①口口 |----|
口口口口 |①---|
口口口口 |--②-|
口口②口 |----|
93
口口②口 |①---|
③口⑤口 |--②-|
口④口口 |--③-|
口①口口 |④-⑤-|
94
口②口口 |①---|
口口口口 |②---|
①口口② |③-④-|
③口④⑤ |⑤---|
95
口口③口 |①---|
⑤口⑦口 |②-③-|
①⑥口② |④-⑤-|
④①口⑥ |⑥-⑦-|
96
口②口口 |①---|
口口口口 |②---|
①⑥⑥② |③-④-|
③口④⑤ |⑤-⑥-|


不確定度: 0

最終更新:2013年03月27日 20:58