SIRIUS VI
BLOOD STAIN CHILD

EXTREME

Level: 9
BPM: 200
Notes: 691

全程BPM在200附近飄忽不定
1
口口口口 |----|
口口口口 |----|
口口口口 |----|
口口口口 |----|
2
①①②口 |①---|
口③口② |②---|
③口口口 |--③-|
口口口口 |----|
3
口口口口 |①---|
口口①口 |--②-|
口②⑤① |--③-|
②口④③ |④-⑤-|
4
①①②口 |①---|
口③口② |②---|
③口口口 |--③-|
口口口口 |----|
5
③口④① |①---|
①口②④ |②-③-|
④①口③ |--④-|
口口③⑤ |--⑤-|
6
②②口① |①---|
口①③③ |②---|
④④①口 |③---|
①口口口 |④---|
7
口口①① |①---|
②②口口 |②---|
口口③③ |③---|
④④口口 |④---|
8
①①口口 |①---|
口口②② |②---|
③③口口 |③---|
口口④④ |④---|
9
口口①① |①---|
②②口口 |②---|
口口③③ |③---|
④④口口 |④---|
10
口③口口 |①---|
③口①口 |--②-|
口①口② |----|
口口②口 |③---|
11
口口①口 |①---|
口③口① |----|
②口③口 |②---|
口②口口 |③---|
12
口口①口 |①---|
口口口① |----|
口口口口 |----|
口口口口 |----|
13
口口口口 |①---|
①口口③ |--②-|
②③①口 |----|
口口②口 |③---|
14
口口口① |①---|
口口①口 |----|
口口口口 |②---|
口口口② |----|
15
口口口口 |①---|
口①口口 |----|
①②口口 |②---|
②口口② |----|
16
口①口口 |①---|
口口①口 |----|
口口口口 |②---|
口口口② |----|
17
口口口口 |①---|
②口口口 |----|
口②①口 |②---|
口①口② |----|
18
口口①③ |①---|
口①③口 |②-③-|
口口口口 |----|
④口②⑤ |④-⑤-|
19
口③口口 |①-②-|
①口③口 |--③-|
口①口口 |----|
④②③口 |④---|
20
口⑤口口 |①---|
⑤口口① |②---|
口口①口 |③---|
口④③② |④-⑤-|
21
口口口口 |----|
口②口⑥ |①---|
口③⑤口 |②③④-|
①④口口 |⑤-⑥-|
22
①口口口 |①---|
①④口口 |②---|
③口口② |③-④-|
口口口⑤ |--⑤-|
23
口③口口 |①---|
②口口① |②-③-|
口口④口 |--④-|
⑤口口口 |--⑤-|
24
口口①口 |①---|
口④口口 |②---|
③口口② |③-④-|
口口口⑤ |--⑤-|
25
①口口③ |①---|
口口②口 |②-③-|
口口④口 |--④-|
⑤口口口 |--⑤-|
26
①口口口 |①---|
①④口口 |②---|
③口⑤② |③-④-|
口口口口 |--⑤-|
27
口③口口 |①---|
②口口① |②-③-|
口口口口
口口口口

口口口口
口口口⑤
口④口口 |--④-|
口口口口 |--⑤-|
28
①口口② |①---|
口①②口 |②---|
口③④口 |③---|
③口口④ |④---|
29
口口①⑤ |①---|
②口口③ |②-③-|
③④口② |--④-|
口①口口 |--⑤-|
30
①口①口 |①---|
⑤①④② |②---|
口③①口 |③-④-|
口①⑥口 |⑤-⑥-|
31
⑦口口③ |①-②-|
口②⑥⑤ |③-④-|
口④⑧口 |⑤-⑥-|
①口口口 |⑦-⑧-|
32
⑦口②② |①-②-|
①⑦口口 |③-④-|
③⑤⑦口 |⑤-⑥-|
⑥口④④ |⑦---|
33
口④①① |①---|
④⑥①① |②-③-|
②③⑥④ |④-⑤-|
⑥⑤口口 |⑥---|
34
口口①① |①---|
口口口② |②---|
口口口口
口口①①

口口口口
⑤口④口
口③口口 |③-④-|
口口⑥口 |⑤-⑥-|
35
⑦口口③ |①-②-|
口②⑥⑤ |③-④-|
口④⑧口 |⑤-⑥-|
①口口口 |⑦-⑧-|
36
⑦口②② |①-②-|
①⑦口口 |③-④-|
③⑤⑦口 |⑤-⑥-|
⑥口④④ |⑦---|
37
口④①① |①---|
④⑥①① |②-③-|
②③⑥口 |④-⑤-|
⑥⑤口④ |⑥---|
38
口口①① |①---|
口④口口 |②---|
③口口② |③-④-|
口口口⑤ |--⑤-|
39
口③口口 |①---|
②口口① |②-③-|
口口④口 |--④-|
⑤口口口 |--⑤-|
40
①口①口 |①---|
口④口口 |②---|
③口口② |③-④-|
口口口⑤ |--⑤-|
41
①口口③ |①---|
口口②口 |②-③-|
口口④口 |--④-|
⑤口口口 |--⑤-|
42
①口①口 |①---|
口④口口 |②---|
③口⑤② |③-④-|
口口口口 |--⑤-|
43
口③口口 |①---|
②口口① |②-③-|
口口口口
口口口口

口口口口
口口口⑤
口④口口 |--④-|
口口口口 |--⑤-|
44
①口口② |①---|
口①②口 |②---|
口③④口 |③---|
③口口④ |④---|
45
口口①口 |①---|
②口口③ |②-③-|
③④口② |--④-|
口①口口 |----|
46
①口①口 |①---|
⑤①④② |②---|
口③①口 |③-④-|
口①⑥口 |⑤-⑥-|
47
⑦口口③ |①-②-|
口②⑥⑤ |③-④-|
口④⑧口 |⑤-⑥-|
①口口口 |⑦-⑧-|
48
⑦口②② |①-②-|
①⑦口口 |③-④-|
③⑤⑦口 |⑤-⑥-|
⑥口④④ |⑦---|
49
口③①① |①---|
③④①① |②-③-|
②口④③ |--④-|
④⑤口口 |--⑤-|
50
口口①① |①---|
口口口② |②---|
口口口口
口口①①

口口口口
⑤口④口
口③口口 |③-④-|
口口⑥口 |⑤-⑥-|
51
⑦口口③ |①-②-|
口②⑥⑤ |③-④-|
口④⑧口 |⑤-⑥-|
①口口口 |⑦-⑧-|
52
口⑤②④ |①-②-|
①②④⑤ |--③-|
②④⑤口 |④---|
口③口口 |⑤---|
53
④口①口 |①------②|
①②④口 |--③----④|
③④口① |----|
②口②口 |----|
54
口①口① |①---|
③口③口 |--②-|
口口口口 |----|
②口口③ |③---|
55
口口口口 |①---|
口口口口 |--②-|
①口①口 |----|
②口口③ |③---|
56
①①口口 |①---|
口口②② |--②-|
③③口口 |----|
②口口③ |③---|
57
口口口口 |----|
口口口口 |--①-|
口口口口 |----|
①口口② |②---|
58
口①口① |①---|
③口③口 |--②-|
口口口口 |----|
②口口③ |③---|
59
口口口口 |①---|
口口口口 |--②-|
①③①③ |----|
②口口③ |③---|
60
①①口口 |①---|
口②②口 |--②-|
口口③③ |----|
②口口③ |③---|
61
①口②口 |①---|
①②③口 |--②-|
口③口口 |--③-|
口①②④ |④---|
62
口①口① |①---|
③口③口 |----|
口口口口 |②---|
①②口口 |③---|
63
口口口口 |①---|
口口口口 |----|
①③①③ |②---|
口口①② |③---|
64
①①口口 |①---|
口口②② |--②-|
④④口口 |③---|
①③口口 |④---|
65
口口口口 |①---|
口口口口 |----|
口口口口 |②---|
口口①② |----|
66
口①口① |①-②-|
④口④口 |--③-|
口口口口 |----|
②③口④ |④---|
67
口口口口 |①-②-|
口口口口 |--③-|
①口①口 |----|
②③口④ |④---|
68
①①口口 |①---|
口②②① |--②-|
②口③③ |----|
③口口口 |③---|
69
③⑨⑧④ |①-②-|
①⑦⑥② |③-④-|
口⑤口口 |--⑤-|
口口口口 |⑥⑦⑧⑨|
70
口口口口 |①---|
口③口① |--②-|
④口口口 |----|
口②口口 |③-④-|
71
口口口口 |--①-|
口口口③ |----|
口口④口 |②---|
口②①口 |③-④-|
72
口口口口 |--①-|
口②口口 |----|
口口口② |②---|
①口②口 |----|
73
②③口① |①---|
口②①③ |--②-|
③①②口 |--③-|
①口③② |----|
74
④④①口 |①---|
①②口③ |②---|
口①口口 |③---|
①③口② |④---|
75
④④口口 |①---|
①②口③ |②---|
口①口口 |③---|
①③口② |④---|
76
④④口口 |①---|
①②口③ |②---|
口①口口 |③---|
①③口② |④---|
77
④④口口 |①---|
①②口③ |②---|
口①口口 |③---|
①③口② |④---|
78
口③口③ |①---|
③口①口 |--②-|
①①口② |----|
口②②口 |③---|
79
①口①口 |①---|
口③口① |----|
②口③③ |②---|
口②口② |③---|
80
口①①口 |①---|
口口口① |②---|
口④口口 |③---|
②口③口 |④---|
81
口口口口 |①---|
①口口③ |--②-|
②③①口 |----|
口口②口 |③---|
82
①口口① |①---|
口口①口 |----|
口口口口 |②---|
口口口② |----|
83
口口口口 |①---|
口①口① |----|
①②口② |②---|
②口口② |----|
84
①口口① |①---|
口口①口 |----|
口口口口 |②---|
口口口② |----|
85
口口口口 |①---|
②口口② |----|
①②口① |②---|
口①口② |----|
86
①口①③ |①---|
口①③口 |②-③-|
口口口口 |----|
④口②⑤ |④-⑤-|
87
口③口口 |①-②-|
①口③口 |--③-|
口①①口 |----|
④②③口 |④---|
88
口⑤口口 |①---|
⑤①口① |②---|
口口①口 |③---|
口④③② |④-⑤-|
89
口口口口 |----|
口②口⑥ |①---|
口③⑤口 |②③④-|
①④口口 |⑤-⑥-|
90
①口⑥③ |①-②-|
①⑦④口 |③-④-|
⑤口口口 |⑤-⑥-|
②口口口 |⑦---|
91
口⑤口口 |①---|
口④口口 |--②-|
③①②口 |--③-|
①口口② |④-⑤-|
92
口口⑥③ |①-②-|
①⑦④口 |③-④-|
⑤口口口 |⑤-⑥-|
②口口口 |⑦---|
93
口⑤口口 |①---|
口④口口 |--②-|
③①②口 |--③-|
①口口② |④-⑤-|
94
①口⑤② |①---|
①⑥③口 |②-③-|
④口口⑥ |④-⑤-|
口①②口 |⑥---|
95
口⑦口口 |①-②-|
口⑥口口 |--③-|
⑤①③⑥ |④-⑤-|
①④②③ |⑥-⑦-|
96
①口口① |①---|
②口口② |②---|
口①②口
口口口口

⑤口口口
口④③口
③口口④ |③---|
口④③口 |④-⑤-|


不確定度: 0

最終更新:2013年03月27日 20:58