ELECTRICITY
BLOOD STAIN CHILD

BASIC

Level: 3
BPM: 162
Notes: 198

1
口口口口 |----|
口口口口 |----|
口口口口 |----|
口口口口 |----|
2
口口口口 |----|
口口口口 |----|
口口口口 |----|
口口口口 |----|
3
口口口口 |----|
口口口口 |----|
口口口口 |----|
口口口口 |----|
4
口口口口 |----|
口口口口 |----|
口口口口 |----|
口口口口 |----|
5
口口口口 |----|
口口口口 |----|
口口口口 |----|
口口口口 |----|
6
口口口口 |----|
口口口口 |----|
口口口口 |----|
口口口口 |----|
7
口口口口 |----|
口口口口 |----|
口口口口 |----|
口口口口 |----|
8
口口口口 |----|
口口口口 |----|
口口口口 |----|
口口口口 |----|
9
口口口口 |----|
口口口口 |----|
口口口口 |----|
口口口口 |----|
10
口口口口 |----|
口口口口 |----|
口口口口 |----|
口口口口 |----|
11
口口口口 |①---|
口口口口 |----|
口②口口 |②---|
①口口口 |----|
12
口口口口 |①---|
口口口口 |----|
口口口② |②---|
口口①口 |----|
13
口口口口 |①---|
口口口口 |----|
口口②口 |②---|
口口口① |----|
14
口口口口 |①---|
口口口口 |----|
②口口口 |②---|
口①口口 |----|
15
口②口口 |①---|
①口口口 |----|
口口口口 |②---|
口口口口 |----|
16
口口口② |①---|
口口①口 |----|
口口口口 |②---|
口口口口 |----|
17
口口②口 |①---|
口口口① |----|
口口口口 |②---|
口口口口 |----|
18
②口口口 |①---|
口①口口 |----|
口口口口 |②---|
口口口口 |----|
19
口口口口 |①---|
①口口口 |----|
②口口口 |②---|
口口口口 |----|
20
口口口口 |①---|
口②口口 |----|
口①口口 |②---|
口口口口 |----|
21
口口口口 |①---|
口口①口 |----|
口口②口 |②---|
口口口口 |----|
22
口口口口 |①---|
口口口② |----|
口口口① |②---|
口口口口 |----|
23
口口②① |①---|
口口口口 |----|
口口口口 |②---|
口口口口 |----|
24
②①口口 |①---|
口口口口 |----|
口口口口 |②---|
口口口口 |----|
25
口口口口 |①---|
口①①口 |----|
口口口口 |----|
口口口口 |----|
26
口口口口 |----|
口口口口 |----|
口口口口 |----|
口口口口 |----|
27
口口口口 |①---|
口口口口 |----|
口①①口 |----|
口口口口 |----|
28
口口口口 |①---|
口口口口 |----|
①口口① |----|
口口口口 |----|
29
口口口口 |①---|
口①①口 |----|
口口口口 |----|
口口口口 |----|
30
口口口口 |①---|
①口口① |----|
口口口口 |----|
口口口口 |----|
31
口口口口 |①---|
口口口口 |----|
口①①口 |----|
口口口口 |----|
32
口口口口 |①---|
口口口口 |----|
①口口① |----|
口口口口 |----|
33
口口口口 |①---|
口①①口 |----|
口口口口 |----|
口口口口 |----|
34
口口口口 |①---|
①口口① |----|
口口口口 |----|
口口口口 |----|
35
口①①口 |①---|
口②②口 |----|
口口口口 |②---|
口口口口 |----|
36
口口口口 |①---|
口口口口 |----|
口①①口 |②---|
口②②口 |----|
37
口口口口 |①---|
口口口口 |----|
②口口② |②---|
①口口① |----|
38
②口口② |①---|
①口口① |----|
口口口口 |②---|
口口口口 |----|
39
口①①口 |①---|
口②②口 |----|
口口口口 |②---|
口口口口 |----|
40
口口口口 |①---|
口口口口 |----|
口①①口 |②---|
口②②口 |----|
41
口口口口 |①---|
口口口口 |----|
②口口② |②---|
①口口① |----|
42
口口口口 |①---|
①①①① |----|
口口口口 |----|
口口口口 |----|
43
口口口口 |----|
口口口口 |----|
口口口口 |----|
口口口口 |----|
44
口口口口 |----|
口口口口 |----|
口口口口 |----|
口口口口 |----|
45
口口口口 |----|
口口口口 |----|
口口口口 |----|
口口口口 |----|
46
口口口口 |①---|
口口口口 |----|
口②口口 |②---|
口口①口 |----|
47
口②口口 |①---|
口口①口 |----|
口口口口 |②---|
口口口口 |----|
48
口口①口 |①---|
口②口口 |----|
口口口口 |②---|
口口口口 |----|
49
口口口口 |①---|
口口口口 |----|
口口①口 |②---|
口②口口 |----|
50
④口口口 |①---|
③口口口 |②---|
②口口口 |③---|
①口口口 |④---|
51
口①口口 |①---|
口②口口 |②---|
口③口口 |③---|
口④口口 |④---|
52
口口④口 |①---|
口口③口 |②---|
口口②口 |③---|
口口①口 |④---|
53
口口口① |①---|
口口口② |②---|
口口口③ |③---|
口口口④ |④---|
54
口④口口 |①---|
口③口口 |②---|
口口②口 |③---|
口口①口 |④---|
55
口口①口 |①---|
口口②口 |②---|
口③口口 |③---|
口④口口 |④---|
56
口④口口 |①---|
口③口口 |②---|
口口②口 |③---|
口口①口 |④---|
57
口口①口 |①---|
口口②口 |②---|
口③口口 |③---|
口④口口 |④---|
58
口口口口 |①---|
口口口口 |②---|
口②③口 |③---|
①口口④ |④---|
59
口口口口 |①---|
口口口口 |②---|
④口口① |③---|
口③②口 |④---|
60
口口口口 |①---|
①口口④ |②---|
口②③口 |③---|
口口口口 |④---|
61
口口口口 |①---|
口③②口 |②---|
④口口① |③---|
口口口口 |④---|
62
口口口口 |①---|
①口口④ |②---|
口②③口 |③---|
口口口口 |④---|
63
④口口① |①---|
口③②口 |②---|
口口口口 |③---|
口口口口 |④---|
64
口②③口 |①---|
①口口④ |②---|
口口口口 |③---|
口口口口 |④---|
65
口口口口 |①---|
口口口口 |②---|
④③②① |③---|
口口口口 |④---|
66
口口口口 |①---|
①②口口 |②---|
口口③④ |③---|
口口口口 |④---|
67
口口口口 |①---|
口口②① |②---|
④③口口 |③---|
口口口口 |④---|
68
口口口口 |①---|
口口口口 |②---|
口口③④ |③---|
①②口口 |④---|
69
口口口口 |①---|
口口口口 |②---|
④③口口 |③---|
口口②① |④---|
70
口口口口 |①---|
①②③④ |②---|
口口口口 |③---|
口口口口 |④---|
71
口口口口 |①---|
口口口口 |②---|
④③②① |③---|
口口口口 |④---|
72
口口口口 |①---|
②①①② |②---|
口口口口 |----|
口口口口 |----|
73
口口口口 |----|
口口口口 |----|
口口口口 |----|
口口口口 |----|
74
口口口口 |①---|
口口口口 |----|
口口口口 |②---|
②①①② |----|
75
口口口口 |①---|
口口口口 |----|
②①①② |②---|
口口口口 |----|
76
口口口口 |①---|
②①①② |----|
口口口口 |②---|
口口口口 |----|
77
②①①② |①---|
口口口口 |----|
口口口口 |②---|
口口口口 |----|
78
口口口口 |①---|
①①①① |----|
口口口口 |----|
口口口口 |----|


不確定度: 0

最終更新:2013年03月27日 20:56