ELECTRICITY
BLOOD STAIN CHILD

ADVANCED

Level: 5
BPM: 162
Notes: 411

1
口口口口 |----|
口口口口 |----|
口口口口 |----|
口口口口 |----|
2
①口口口 |①---|
口②口口 |②---|
③口口口 |③---|
口④口口 |④---|
3
口④口口 |①---|
③口口口 |②---|
口②口口 |③---|
①口口口 |④---|
4
口口①口 |①---|
口口口② |②---|
口口③口 |③---|
口口口④ |④---|
5
口口口④ |①---|
口口③口 |②---|
口口口② |③---|
口口①口 |④---|
6
口口①口 |①---|
口②口口 |②---|
口口③口 |③---|
口④口口 |④---|
7
口④口口 |①---|
口口③口 |②---|
口②口口 |③---|
口口①口 |④---|
8
①口口口 |①---|
口②口口 |②---|
③口口口 |③---|
口④口口 |④---|
9
口④口口 |①---|
③口口口 |②---|
口②口口 |③---|
①口口口 |④---|
10
口口口口 |----|
②①①③ |①---|
②口口③ |②---|
口口口口 |③---|
11
口口口口 |--①-|
⑤口⑥④ |②-③-|
口口口口 |--④-|
①③口② |⑤-⑥-|
12
⑤口⑥④ |--①-|
口口口口 |②-③-|
①③口② |--④-|
口口口口 |⑤-⑥-|
13
口口口口 |--①-|
⑤口⑥④ |②-③-|
①③口② |--④-|
口口口口 |⑤-⑥-|
14
①③口② |--①-|
口口口口 |②-③-|
口口口口 |--④-|
⑤口⑥④ |⑤-⑥-|
15
口口口口 |--①-|
①⑤②④ |②-③-|
口③⑥口 |--④-|
口口口口 |⑤-⑥-|
16
口口口口 |--①-|
口口口口 |②-③-|
口③⑥口 |--④-|
①⑤②④ |⑤-⑥-|
17
①⑤②④ |--①-|
口③⑥口 |②-③-|
口口口口 |--④-|
口口口口 |⑤-⑥-|
18
口口口口 |--①-|
口③⑥口 |②-③-|
①⑤②④ |--④-|
口口口口 |⑤-⑥-|
19
口口③口 |--①-|
口②⑥口 |②-③-|
①⑤口口 |--④-|
④口口口 |⑤-⑥-|
20
口口口⑥ |--①-|
口口⑤③ |②-③-|
口④②口 |--④-|
口①口口 |⑤-⑥-|
21
口口口口 |--①-|
口口口① |②-③-|
口口口② |--④-|
⑥⑤④③ |⑤-⑥-|
22
③④⑤⑥ |--①-|
②口口口 |②-③-|
①口口口 |--④-|
口口口口 |⑤-⑥-|
23
口口口口 |--①-|
⑥③③口 |②-③-|
①④⑤② |--④-|
口口口口 |⑤-⑥-|
24
口口口口 |--①-|
口③②① |--②-|
口②③口 |--③-|
口④④口 |--④-|
25
②口口② |--①-|
口口口口 |②---|
①口口① |----|
口口口口 |----|
26
口口口口 |①---|
①口③口 |②---|
口②口④ |③---|
口口口口 |④---|
27
口口口口 |①-②-|
①②口口 |----|
①②口口 |----|
口口口口 |----|
28
口口口口 |①-②-|
口口②① |----|
口口②① |----|
口口口口 |----|
29
口口口口 |①-②-|
口口口口 |----|
口②②口 |----|
口①①口 |----|
30
口①①口 |①-②-|
口②②口 |----|
口口口口 |----|
口口口口 |----|
31
口口口口 |①-②-|
②①口口 |----|
口口①② |----|
口口口口 |----|
32
口口口口 |①-②-|
口口①② |----|
②①口口 |----|
口口口口 |----|
33
口口口口 |①-②-|
口②①口 |----|
口①②口 |----|
口口口口 |----|
34
②口口② |①---|
④口口③ |②---|
口①①⑤ |③--④|
口口口口 |--⑤-|
35
口口②口 |①---|
口口口② |----|
①口口口 |②---|
口①口口 |----|
36
口口口① |①---|
口口①口 |----|
口②口口 |②---|
②口口口 |----|
37
口②口口 |①---|
②口口口 |----|
口口口① |②---|
口口①口 |----|
38
①口口口 |①---|
口①口口 |----|
口口②口 |②---|
口口口② |----|
39
口口口口 |①---|
②口①口 |----|
口①口② |②---|
口口口口 |----|
40
口口口口 |①---|
口①口② |----|
②口①口 |②---|
口口口口 |----|
41
①口口口 |①---|
①口口口 |----|
口口口② |②---|
口口口② |----|
42
口口口④ |①---|
口①①③ |----|
口①①② |②--③|
口口口口 |--④-|
43
口口口口 |----|
①口口口 |----|
②口口口 |①--②|
③口口口 |--③-|
44
口③口口 |----|
口②口口 |----|
口①口口 |①--②|
口口口口 |--③-|
45
口口口口 |----|
口口①口 |----|
口口②口 |①--②|
口口③口 |--③-|
46
口①②⑤ |①---|
口口口④ |②---|
口口口③ |③--④|
口口口口 |--⑤-|
47
口口口口 |①---|
③口口口 |②---|
④口口口 |③--④|
⑤②①口 |--⑤-|
48
口①②口 |①---|
口口口口 |②---|
口口口口
口口口口

口⑤口口
口④口口
口③口口 |③--④|
口口口口 |--⑤-|
49
⑦口口⑧ |①-②-|
⑤口口⑥ |③-④-|
③口口④ |⑤-⑥-|
①口口② |⑦-⑧-|
50
口口口口 |--①-|
③口口⑥ |②-③-|
口⑤②口 |--④-|
口①④口 |⑤-⑥-|
51
口⑤②口 |--①-|
③①④⑥ |②-③-|
口口口口 |--④-|
口口口口 |⑤-⑥-|
52
口口口口 |--①-|
口③⑥口 |②-③-|
口⑤②口 |--④-|
口①④口 |⑤-⑥-|
53
①口口② |--①-|
③口口③ |②-③-|
口④④口 |--④-|
口口口口 |----|
54
①口口口 |--①-|
口②③口 |②-③-|
口⑥⑤口 |--④-|
口口口④ |⑤-⑥-|
55
口口口口 |--①-|
口①口口 |--②-|
口口③③ |--③-|
口口口② |----|
56
口口④口 |--①-|
口⑤③口 |②-③-|
⑥②⑥口 |--④-|
①口口口 |⑤-⑥-|
57
口口口口 |--①-|
①口①口 |--②-|
口③口③ |--③-|
口②口② |----|
58
口口口口 |--①-|
⑤口⑥④ |②-③-|
口口口口 |--④-|
①③口② |⑤-⑥-|
59
⑤口⑥④ |--①-|
口口口口 |②-③-|
①③口② |--④-|
口口口口 |⑤-⑥-|
60
口口口口 |--①-|
⑤口⑥④ |②-③-|
①③口② |--④-|
口口口口 |⑤-⑥-|
61
①③口② |--①-|
口口口口 |②-③-|
口口口口 |--④-|
⑤口⑥④ |⑤-⑥-|
62
口口口口 |--①-|
①⑤②④ |②-③-|
口③⑥口 |--④-|
口口口口 |⑤-⑥-|
63
口口口口 |--①-|
口口口口 |②-③-|
口③⑥口 |--④-|
①⑤②④ |⑤-⑥-|
64
①⑤②④ |--①-|
口③⑥口 |②-③-|
口口口口 |--④-|
口口口口 |⑤-⑥-|
65
口口口口 |--①-|
口③⑥口 |②-③-|
①⑤②④ |--④-|
口口口口 |⑤-⑥-|
66
口口口④ |--①-|
口口⑤① |②-③-|
口⑥②口 |--④-|
口③口口 |⑤-⑥-|
67
口口①口 |--①-|
口②④口 |②-③-|
③⑤口口 |--④-|
⑥口口口 |⑤-⑥-|
68
③④⑤⑥ |--①-|
②口口口 |②-③-|
①口口口 |--④-|
口口口口 |⑤-⑥-|
69
口口口口 |--①-|
口口口① |②-③-|
口口口② |--④-|
⑥⑤④③ |⑤-⑥-|
70
口口口口 |--①-|
⑥③③口 |②-③-|
①④⑤② |--④-|
口口口口 |⑤-⑥-|
71
口口口口 |--①-|
口③②① |--②-|
口②③口 |--③-|
口④④口 |--④-|
72
②口口② |--①-|
①口口① |②---|
口口口口 |----|
口口口口 |----|
73
口口口口 |①---|
④口②口 |②---|
口③口① |③---|
口口口口 |④---|
74
口口口口 |①-②-|
口口口口 |③-④-|
⑧⑦⑥⑤ |⑤-⑥-|
①②③④ |⑦-⑧-|
75
⑧⑦⑥⑤ |①-②-|
①②③④ |③-④-|
口口口口 |⑤-⑥-|
口口口口 |⑦-⑧-|
76
口口口口 |①-②-|
①②③④ |③-④-|
⑧⑦⑥⑤ |⑤-⑥-|
口口口口 |⑦-⑧-|
77
口口口口 |①-②-|
口口口口 |③-④-|
⑧⑦⑥⑤ |⑤-⑥-|
①②③④ |⑦-⑧-|
78
口口口口 |①---|
①①①① |----|
口口口口 |----|
口口口口 |----|


不確定度: 0

最終更新:2013年03月27日 20:55