ELECTRICITY
BLOOD STAIN CHILD

EXTREME

Level: 8
BPM: 162
Notes: 694

1
口口口口 |----|
口口口口 |----|
口口口口 |----|
口口口口 |----|
2
口口④② |①-②-|
⑦⑤口⑨ |③④-⑤|
⑨口⑥⑧ |⑥-⑦⑧|
①③口口 |--⑨-|
3
口口④② |①-②-|
口⑤口口 |③④-⑤|
口口口口
①③口口

口口口⑨
⑦口口口
口口⑥⑧ |⑥-⑦⑧|
⑨口口口 |--⑨-|
4
⑦⑤口口 |①-②-|
⑨口④② |③④-⑤|
①③口⑨ |⑥-⑦⑧|
口口⑥⑧ |--⑨-|
5
口⑤口口 |①-②-|
口口④② |③④-⑤|
①③口口
口口口口

⑦口口口
⑨口口⑨
⑨口口⑨ |⑥-⑦⑧|
口口⑥⑧ |--⑨-|
6
口口④② |①-②-|
⑦⑤口⑨ |③④-⑤|
⑨口⑥⑧ |⑥-⑦⑧|
①③口口 |--⑨-|
7
口口④② |①-②-|
口⑤口口 |③④-⑤|
口口口口
①③口口

口口口⑨
⑦口口口
口口⑥⑧ |⑥-⑦⑧|
⑨口口口 |--⑨-|
8
⑦⑤口口 |①-②-|
⑨口④② |③④-⑤|
①③口⑨ |⑥-⑦⑧|
口口⑥⑧ |--⑨-|
9
⑮⑬②⑧ |①②③④|
⑪⑤⑭④ |⑤⑥⑦⑧|
⑦①⑩⑫ |⑨⑩⑪⑫|
③⑨⑥⑯ |⑬⑭⑮⑯|
10
⑨口口口 |----|
口③④口 |①②--|
口⑤⑥⑧ |③④⑤⑥|
⑦①②口 |-⑦⑧⑨|
11
口①②③ |--①-|
①口口口 |②-③-|
口口口④ |--④-|
⑥⑤④③ |⑤-⑥-|
12
①①②口 |--①-|
口口口③ |②-③-|
⑥口口口 |--④-|
口⑤④④ |⑤-⑥-|
13
①口口口 |--①-|
口①②③ |②-③-|
⑥⑤④口 |--④-|
口口口④ |⑤-⑥-|
14
口口口③ |--①-|
①①②口 |②-③-|
口⑤④④ |--④-|
⑥口口口 |⑤-⑥-|
15
口①②③ |--①-|
①口口口 |②-③-|
口口口④ |--④-|
⑥⑤④③ |⑤-⑥-|
16
①①②口 |--①-|
口口口③ |②-③-|
⑥口口口 |--④-|
口⑤④④ |⑤-⑥-|
17
①口口口 |--①-|
口①②③ |②-③-|
⑥⑤④口 |--④-|
口口口④ |⑤-⑥-|
18
口口口③ |--①-|
①①②口 |②-③-|
口⑤④④ |--④-|
⑥口口口 |⑤-⑥-|
19
①②口口 |--①-|
①⑥③④ |②-③-|
口口⑤④ |--④-|
口口口口 |⑤-⑥-|
20
口口⑤④ |--①-|
①⑥③④ |②-③-|
①②口口 |--④-|
口口口口 |⑤-⑥-|
21
口口口口 |--①-|
①口口口 |②-③-|
①②⑤④ |--④-|
口⑥③④ |⑤-⑥-|
22
口口口口 |--①-|
口⑥③④ |②-③-|
①②⑤④ |--④-|
①口口口 |⑤-⑥-|
23
①③③① |--①-|
口口口口 |②-③-|
口口口口
口②②口

⑥口口⑥
口⑥⑥口
④口口④ |--④-|
⑤口口⑤ |⑤-⑥-|
24
口②②口 |--①-|
①口口① |--②-|
②口口②
口①①口

口口口口
口④④口
口③③口 |--③-|
③④④③ |--④-|
25
②②②② |--①-|
①口口① |②---|
口口口口 |----|
口口口口 |----|
26
⑨口口② |①-②-|
⑤口④口 |③④-⑤|
口③⑥口 |⑥-⑦⑧|
①⑦口⑧ |--⑨-|
27
口口①口 |①-②-|
口①②① |----|
①②口② |----|
②口口口 |----|
28
①口口口 |①-②-|
②口①口 |----|
口①②① |----|
口②口② |----|
29
口①②口 |①-②-|
①②①② |----|
口①②口 |----|
口口口口 |----|
30
口口口口 |①-②-|
口②①口 |----|
②①②① |----|
口②①口 |----|
31
①口①口 |①-②-|
②①②口 |----|
口②口① |----|
口口口② |----|
32
口口口① |①-②-|
①口①② |----|
②①②口 |----|
口②口口 |----|
33
①口口① |①-②-|
②①①② |----|
①②②① |----|
②口口② |----|
34
⑥口口⑥ |①②③④|
口口口口 |⑤⑥--|
口⑤⑤口
①③②④

口口口口
⑦⑨⑨⑧
⑧口口⑦ |⑦--⑧|
口⑨⑨口 |--⑨-|
35
口⑧⑦口 |①-②-|
⑥口口⑤ |③-④-|
口④③口 |⑤-⑥-|
②口口① |⑦-⑧-|
36
⑧口口⑦ |①-②-|
口⑥⑤口 |③-④-|
④口口③ |⑤-⑥-|
口②①口 |⑦-⑧-|
37
⑧口④口 |①-②-|
口⑥口② |③-④-|
口⑤口① |⑤-⑥-|
⑦口③口 |⑦-⑧-|
38
口⑥口② |①-②-|
⑧口④口 |③-④-|
⑦口③口 |⑤-⑥-|
口⑤口① |⑦-⑧-|
39
口口口⑧ |①-②-|
口口⑥④ |③-④-|
口⑤口② |⑤-⑥-|
⑦③①口 |⑦-⑧-|
40
口②④⑧ |①-②-|
①口⑥口 |③-④-|
③⑤口口 |⑤-⑥-|
⑦口口口 |⑦-⑧-|
41
⑧⑦口口 |①-②-|
口口⑤⑥ |③-④-|
④③口口 |⑤-⑥-|
口口①② |⑦-⑧-|
42
口口①① |①---|
①口口口 |----|
②③④① |②--③|
①①口口 |--④-|
43
口口口口 |----|
口口口口 |----|
口③②① |①--②|
口口口口 |--③-|
44
口口口口 |--①-|
口口②口 |-②--|
③④⑤口 |③--④|
口口口① |--⑤-|
45
口口口口 |--①-|
口②口口 |-②--|
口⑤④③ |③--④|
①口口口 |--⑤-|
46
②⑤口口 |①-②-|
④⑥口口 |③④--|
口⑦口③ |⑤--⑥|
口口口① |--⑦-|
47
口口口② |①-②-|
口口⑦④ |③④--|
③口⑥口 |⑤--⑥|
①口⑤口 |--⑦-|
48
③⑦口② |①-②-|
⑦口⑥口 |③④--|
口口口⑥ |⑤--⑥|
①⑤⑤④ |--⑦-|
49
⑮⑬②⑧ |①②③④|
⑪⑤⑭④ |⑤⑥⑦⑧|
⑦①⑩⑫ |⑨⑩⑪⑫|
③⑨⑥⑯ |⑬⑭⑮⑯|
50
⑥⑥③③ |--①-|
口②⑤口 |②-③-|
口口口口 |--④-|
口④①口 |⑤-⑥-|
51
口口口口 |--①-|
口③⑥口 |②-③-|
③⑤②⑥ |--④-|
④口口① |⑤-⑥-|
52
口①①口 |--①-|
②⑥⑤④ |②-③-|
②⑥⑤④ |--④-|
口③③口 |⑤-⑥-|
53
口口②① |--①-|
③口口口 |②-③-|
口口口口 |--④-|
口④④④ |----|
54
①①②② |--①-|
⑥口口③ |②-③-|
⑥口口③ |--④-|
⑤⑤④④ |⑤-⑥-|
55
④④④口 |--①-|
口①②口 |②-③-|
口口口③ |--④-|
口口口口 |----|
56
④⑤口口 |--①-|
口③⑥③ |②-③-|
口⑥③⑥ |--④-|
①②口口 |⑤-⑥-|
57
口口①① |--①-|
②②③③ |--②-|
口③②口 |--③-|
①①口口 |----|
58
⑥⑤④口 |--①-|
口口口④ |②-③-|
①口口口 |--④-|
口①②③ |⑤-⑥-|
59
口⑤④口 |--①-|
⑥口口④ |②-③-|
①口口③ |--④-|
口①②口 |⑤-⑥-|
60
口口口④ |--①-|
⑥⑤④口 |②-③-|
口①②③ |--④-|
①口口口 |⑤-⑥-|
61
⑥口口口 |--①-|
口⑤④④ |②-③-|
①①②口 |--④-|
口口口③ |⑤-⑥-|
62
⑥⑤④口 |--①-|
口口口④ |②-③-|
①口口口 |--④-|
口①②③ |⑤-⑥-|
63
口⑤④口 |--①-|
⑥口口④ |②-③-|
①口口③ |--④-|
口①②口 |⑤-⑥-|
64
口口口④ |--①-|
⑥⑤④口 |②-③-|
口①②③ |--④-|
①口口口 |⑤-⑥-|
65
⑥口口口 |--①-|
口⑤④④ |②-③-|
①①②口 |--④-|
口口口③ |⑤-⑥-|
66
口①⑥① |--①-|
口口⑤口 |②-③-|
④②④口 |--④-|
口③口口 |⑤-⑥-|
67
口口⑥口 |--①-|
口①⑤① |②-③-|
口②口口 |--④-|
④③④口 |⑤-⑥-|
68
①口口口 |--①-|
⑥⑤④口 |②-③-|
①口②③ |--④-|
口口④口 |⑤-⑥-|
69
口①口口 |--①-|
⑥⑤口④ |②-③-|
口①②③ |--④-|
口口口④ |⑤-⑥-|
70
①③③① |--①-|
口口口口 |②-③-|
口口口口
口②②口

⑥口口⑥
口⑥⑥口
④口口④ |--④-|
⑤口口⑤ |⑤-⑥-|
71
口②②口 |--①-|
①口口① |--②-|
②口口②
口①①口

口口口口
口④④口
口③③口 |--③-|
③④④③ |--④-|
72
②②②② |--①-|
①口口① |②---|
口口口口 |----|
口口口口 |----|
73
①⑮⑯② |①②③④|
⑬③④⑭ |⑤⑥⑦⑧|
⑪⑤⑥⑫ |⑨⑩⑪⑫|
⑦⑨⑩⑧ |⑬⑭⑮⑯|
74
①口口口 |①-②-|
⑦②口口 |③-④-|
⑧口③口 |⑤-⑥-|
口⑥⑤④ |⑦-⑧-|
75
口口口④ |①-②-|
口口③⑤ |③-④-|
口②口⑥ |⑤-⑥-|
①⑦⑧口 |⑦-⑧-|
76
④⑤⑥口 |①-②-|
口③口⑧ |③-④-|
口口②⑦ |⑤-⑥-|
口口口① |⑦-⑧-|
77
⑦⑧口① |①-②-|
口口②口 |③-④-|
口③口口 |⑤-⑥-|
④口⑥⑤ |⑦-⑧-|
78
口口口口 |①---|
①①①① |----|
①①①① |----|
口口口口 |----|


不確定度: 0

最終更新:2013年03月27日 20:55