UNLIMITED FIRE
TAG

BASIC

Level: 3
BPM: 160
Notes: 206

1
口口口口 |----|
口口口口 |----|
口口口口 |----|
口口口口 |----|
2
口口口口 |①---|
口口口口 |②---|
③口口④ |③---|
①口口② |④---|
3
③口口④ |①---|
①口口② |②---|
口口口口 |③---|
口口口口 |④---|
4
口①②口 |①---|
口③④口 |②---|
口口口口 |③---|
口口口口 |④---|
5
口口口口 |①---|
口口口口 |②---|
口①②口 |③---|
口③④口 |④---|
6
口口口口 |①---|
口口口口 |②---|
③口口④ |③---|
①口口② |④---|
7
③口口④ |①---|
①口口② |②---|
口口口口 |③---|
口口口口 |④---|
8
口①②口 |①---|
口③④口 |②---|
口口口口 |③---|
口口口口 |④---|
9
口口口口 |①---|
口口口口 |②---|
口①②口 |③---|
口③④口 |④---|
10
口口口口 |①---|
口口口口 |----|
①口口① |----|
口口口口 |----|
11
口口口口 |①---|
口③口口 |②---|
口②口口 |③---|
口①口口 |----|
12
口口口口 |①---|
口口①口 |②---|
口口②口 |③---|
口口③口 |----|
13
口③口口 |①---|
口②口口 |②---|
口①口口 |③---|
口口口口 |----|
14
口口①口 |①---|
口口②口 |②---|
口口③口 |③---|
口口口口 |----|
15
口口口口 |①---|
口③口口 |②---|
口②口口 |③---|
口①口口 |----|
16
口口口口 |①---|
口口①口 |②---|
口口②口 |③---|
口口③口 |----|
17
口③③口 |①---|
口②②口 |②---|
口①①口 |③---|
口口口口 |----|
18
①口口① |①---|
口口口口 |----|
②口口② |②---|
口口口口 |----|
19
口口口口 |①---|
口③口口 |②---|
口②口口 |③---|
口①口口 |----|
20
口口口口 |①---|
口口①口 |②---|
口口②口 |③---|
口口③口 |----|
21
口③口口 |①---|
口②口口 |②---|
口①口口 |③---|
口口口口 |----|
22
口口①口 |①---|
口口②口 |②---|
口口③口 |③---|
口口口口 |----|
23
口口口口 |①---|
口③口口 |②---|
口②口口 |③---|
口①口口 |----|
24
口口口口 |①---|
口口①口 |②---|
口口②口 |③---|
口口③口 |----|
25
口③③口 |①---|
口②②口 |②---|
口①①口 |③---|
口口口口 |----|
26
②口口② |①---|
①口口① |----|
口口口口 |②---|
口口口口 |----|
27
口口口口 |①---|
口口①口 |----|
口①口口 |----|
口口口口 |----|
28
口口口口 |①---|
口①口口 |----|
口口①口 |----|
口口口口 |----|
29
口口口口 |①---|
①口口① |----|
口口口口 |----|
口口口口 |----|
30
口口①口 |①---|
口②口口 |②---|
口口③口 |③---|
口④口口 |④---|
31
口口口口 |①---|
口口①口 |----|
口①口口 |----|
口口口口 |----|
32
口口口口 |①---|
口①口口 |----|
口口①口 |----|
口口口口 |----|
33
口口口口 |①---|
口口口① |----|
①口口口 |----|
口口口口 |----|
34
口口口口 |①---|
①口口口 |----|
口口口① |----|
口口口口 |----|
35
口口口口 |①---|
口①①② |----|
口①①口 |②---|
口口口口 |----|
36
口口口口 |①---|
口口口口 |----|
口口口① |②---|
口口②口 |----|
37
口口口口 |①---|
口口口口 |----|
②口口口 |②---|
口①口口 |----|
38
口②口口 |①---|
①口口口 |----|
口口口口 |②---|
口口口口 |----|
39
口口口口 |①---|
口①口口 |----|
口口①口 |----|
口口口口 |----|
40
口口口口 |①---|
口口①口 |----|
口①口口 |----|
口口口口 |----|
41
口①①口 |①---|
口②②口 |②---|
口③③口 |③---|
口④④口 |④---|
42
④口口④ |①---|
③口口③ |②---|
②口口② |③---|
①口口① |④---|
43
②②②② |①---|
口①①口 |----|
口口口口 |②---|
口口口口 |----|
44
口口口口 |①---|
口③②① |②---|
口口口口 |③---|
口口口口 |----|
45
口口口口 |①---|
口口口口 |②---|
①②③口 |③---|
口口口口 |----|
46
口口②口 |①---|
口③口① |②---|
口口口口 |③---|
口口口口 |----|
47
口口口口 |①---|
口口口口 |②---|
①口③口 |③---|
口②口口 |----|
48
口口口口 |①---|
口③②① |②---|
口口口口 |③---|
口口口口 |----|
49
口口口口 |①---|
口口口口 |②---|
①②③口 |③---|
口口口口 |----|
50
口口②口 |①---|
口③口① |②---|
口口口口 |③---|
口口口口 |----|
51
口口口口 |①---|
①口口① |----|
②口口② |②---|
口口口口 |----|
52
口口口口 |①---|
①②③口 |②---|
口口口口 |③---|
口口口口 |----|
53
口口口口 |①---|
口口口口 |②---|
口③②① |③---|
口口口口 |----|
54
口②口口 |①---|
①口③口 |②---|
口口口口 |③---|
口口口口 |----|
55
口口口口 |①---|
口口口口 |②---|
口③口① |③---|
口口②口 |----|
56
口口口口 |①---|
①②③口 |②---|
口口口口 |③---|
口口口口 |----|
57
口口口口 |①---|
口口口口 |②---|
口③②① |③---|
口口口口 |----|
58
口口口口 |①---|
口口口口 |----|
②口口② |②---|
①口口① |----|
59
②口口② |①---|
①口口① |----|
口口口口 |②---|
口口口口 |----|
60
④④④④ |①---|
②③③② |--②-|
①口口① |----|
口口口口 |③-④-|


不確定度: 0

最終更新:2013年03月27日 20:55