UNLIMITED FIRE
TAG

ADVANCED

Level: 5
BPM: 160
Notes: 386

1
口口口口 |----|
口口口口 |----|
口口口口 |----|
口口口口 |----|
2
口④④口 |①---|
③口口③ |②---|
口②②口 |③---|
①口口① |④---|
3
①口口① |①---|
口②②口 |②---|
③口口③ |③---|
口④④口 |④---|
4
口④④口 |①---|
③口口③ |②---|
口②②口 |③---|
①口口① |④---|
5
①口口① |①---|
口②②口 |②---|
③口口③ |③---|
口④④口 |④---|
6
口口口② |①---|
④口①③ |②---|
③①口④ |③---|
②口口口 |④---|
7
①②③④ |①---|
口口口口 |②---|
口口口口 |③---|
④③②① |④---|
8
③口口口 |①---|
②④口① |②---|
①口④② |③---|
口口口③ |④---|
9
口⑤⑤口 |①-②-|
口④④口 |----|
口③③口 |③--④|
口①②口 |--⑤-|
10
口口口口 |①---|
①口口① |----|
①②②① |----|
口口口口 |②---|
11
口口口口 |①-②-|
①②③④ |③-④-|
口口⑤口 |--⑤-|
⑥口口口 |--⑥-|
12
口④④口 |--①-|
口口①② |②---|
口③③口 |③---|
口口口口 |④---|
13
口口口⑥ |①-②-|
④③②① |③-④-|
口⑤口口 |--⑤-|
口口口口 |--⑥-|
14
口④④口 |--①-|
②①口口 |②---|
口③③口 |③---|
口口口口 |④---|
15
口口口口 |①-②-|
①②③④ |③-④-|
口口⑤口 |--⑤-|
⑥口口口 |--⑥-|
16
口④④口 |--①-|
口口①② |②---|
口③③口 |③---|
口口口口 |④---|
17
口口口口 |①-②-|
④③②① |③-④-|
口口口口
口口口口

口⑤⑤口
口口⑥口
口⑥口口 |--⑤-|
口口口口 |--⑥-|
18
③口口① |--①-|
口②口口 |--②-|
口口②口 |--③-|
①口口③ |----|
19
口口口口 |①-②-|
①②③④ |③-④-|
口口⑤口 |--⑤-|
⑥口口口 |--⑥-|
20
口④④口 |--①-|
口口①② |②---|
口③③口 |③---|
口口口口 |④---|
21
口口口⑥ |①-②-|
④③②① |③-④-|
口⑤口口 |--⑤-|
口口口口 |--⑥-|
22
口④④口 |--①-|
②①口口 |②---|
口③③口 |③---|
口口口口 |④---|
23
口口口口 |①-②-|
①②③④ |③-④-|
口口口口 |--⑤-|
⑥口口⑤ |--⑥-|
24
⑤口口⑥ |①-②-|
口口口口 |③-④-|
④③②① |--⑤-|
口口口口 |--⑥-|
25
口口口口 |①-②-|
①②③④ |③-④-|
口⑥⑥口 |--⑤-|
⑤口口⑤ |--⑥-|
26
③③③③ |--①-|
①②②① |--②-|
口口口口 |--③-|
口口口口 |----|
27
口口口口 |①---|
②口口① |--②-|
口②①口 |----|
③口口③ |③---|
28
③口口③ |①---|
口①②口 |--②-|
①口口② |----|
口口口口 |③---|
29
口口口口 |①---|
②口口① |--②-|
口②①口 |----|
③口口③ |③---|
30
⑥③②⑥ |①-②-|
口①④口 |③-④-|
⑤口口⑤ |--⑤-|
口口口口 |--⑥-|
31
口口口口 |①---|
②口口① |--②-|
口②①口 |----|
③口口③ |③---|
32
③口口③ |①---|
口①②口 |--②-|
①口口② |----|
口口口口 |③---|
33
口口口口 |①---|
②口口① |--②-|
口②①口 |----|
③口口③ |③---|
34
口口口口 |①---|
②口口① |----|
①口口② |②---|
口口口口 |----|
35
口口口口 |①---|
口①①口 |----|
口①①口 |----|
口口口口 |----|
36
口口口口 |----|
口口口口 |----|
口口口口 |----|
口口口口 |----|
37
①口口② |①--②|
口口口口 |----|
①口口② |----|
口口口口 |----|
38
口口口口 |----|
口口口口 |----|
口口口口 |----|
口口口口 |----|
39
②口口① |①---|
口口口口 |----|
口口口口 |②---|
①口口② |----|
40
口②①口 |①---|
口口口口 |----|
口口口口 |②---|
口①②口 |----|
41
口口④④ |①---|
③③口口 |②---|
口口②② |③---|
①①口口 |④---|
42
①①口口 |①---|
口口②② |②---|
③③口口 |③---|
口口④④ |④---|
43
②口口② |①---|
口①①口 |----|
②口口② |②---|
口口口口 |----|
44
口口⑤⑤ |①-②-|
口③②口 |③-④-|
口①④口 |--⑤-|
⑥⑥口口 |--⑥-|
45
④口口④ |--①-|
口口口口 |②---|
③①②③ |③---|
口口口口 |④---|
46
⑥⑥口口 |①-②-|
口③②口 |③-④-|
口①④口 |--⑤-|
口口⑤⑤ |--⑥-|
47
④口口④ |--①-|
口口口口 |②---|
③①②③ |③---|
口口口口 |④---|
48
口口⑤⑤ |①-②-|
口③②口 |③-④-|
口①④口 |--⑤-|
⑥⑥口口 |--⑥-|
49
④口口④ |--①-|
口口口口 |②---|
③①②③ |③---|
口口口口 |④---|
50
口口口口 |①-②-|
⑥③②口 |③-④-|
口①④⑥ |--⑤-|
口口⑤⑤ |--⑥-|
51
②口口③ |--①-|
口口口① |--②-|
①口口口 |--③-|
③口口② |----|
52
口口⑤⑤ |①-②-|
口③②口 |③-④-|
口①④口 |--⑤-|
⑥⑥口口 |--⑥-|
53
④口口④ |--①-|
口口口口 |②---|
③①②③ |③---|
口口口口 |④---|
54
⑥⑥口口 |①-②-|
口③②口 |③-④-|
口①④口 |--⑤-|
口口⑤⑤ |--⑥-|
55
④口口④ |--①-|
口口口口 |②---|
③①②③ |③---|
口口口口 |④---|
56
口口⑤⑤ |①-②-|
口③②口 |③-④-|
口①④口 |--⑤-|
⑥⑥口口 |--⑥-|
57
⑤⑤口口 |①-②-|
口④①口 |③-④-|
口②③口 |--⑤-|
口口⑥⑥ |--⑥-|
58
口口口口 |①-②-|
⑤③②⑤ |③-④-|
口①④口 |--⑤-|
口⑥⑥口 |--⑥-|
59
③口口③ |--①-|
口①①口 |--②-|
②口口② |--③-|
口口口口 |----|
60
口口口口 |①---|
②①①② |--②-|
②①①②
口口口口

④④④④
口③③口
口口口口 |----|
口口口口 |③-④-|


不確定度: 0

最終更新:2013年03月27日 20:54