UNLIMITED FIRE
TAG

EXTREME

Level: 8
BPM: 160
Notes: 688

1
口口口口 |----|
口口口口 |----|
口口口口 |----|
口口口口 |----|
2
口⑦口口 |①-②-|
⑤口⑥⑦ |③④--|
口⑥④口 |⑤--⑥|
①③⑤② |--⑦-|
3
⑤⑥⑦⑧ |-①--|
④②③口 |②--③|
口口①④ |--④-|
①③口② |⑤⑥⑦⑧|
4
口⑦口⑥ |①-②-|
口⑥④口 |③④--|
⑤③口⑦ |⑤--⑥|
①口⑤② |--⑦-|
5
②口口③ |-①--|
口口①口 |②--③|
③①②口
口口口口

口④口口
⑤⑥⑦⑧
口口口④ |--④-|
口口口口 |⑤⑥⑦⑧|
6
口⑦口口 |①-②-|
⑤口⑥⑦ |③④--|
口⑥④口 |⑤--⑥|
①③⑤② |--⑦-|
7
⑤⑥⑦⑧ |-①--|
④②③口 |②--③|
口口①④ |--④-|
①③口② |⑤⑥⑦⑧|
8
口口口口 |①-②-|
⑤⑦④⑥ |③④--|
⑥③口⑤ |⑤--⑥|
①口⑦② |--⑦-|
9
②口口② |①-②-|
口口口口 |----|
口①①口
口口口口

口④③口
④⑤⑤③
口⑤⑤口 |③--④|
③③④④ |--⑤-|
10
①②②① |①---|
口口口口 |----|
①口口① |----|
口②②口 |②---|
11
口口口口 |①-②-|
②④③① |③-④-|
④②①③ |--⑤-|
⑥⑤⑤⑥ |--⑥-|
12
⑥⑥③③ |--①-|
②口口② |②---|
口①①口 |③-④-|
④④⑤⑤ |⑤-⑥-|
13
⑥⑥⑥⑥ |①-②-|
②④③① |③-④-|
④②①③ |--⑤-|
口⑤⑤口 |--⑥-|
14
口口口口 |--①-|
口①口口 |②---|
口口①口
②口口②

⑥口口口
口⑥③③
④④口⑤ |③-④-|
口口⑤口 |⑤-⑥-|
15
口④口① |①-②-|
②口③口 |③-④-|
④口①口
口②口③

口口口口
口口口口
口⑤⑥口 |--⑤-|
口⑥⑤口 |--⑥-|
16
⑥②②口 |--①-|
口①①⑤ |②---|
④⑥口③ |③-④-|
④口⑤③ |⑤-⑥-|
17
口④口① |①-②-|
②口③口 |③-④-|
④口①口
口②口③

口口口口
⑥口口口
口⑤⑥口 |--⑤-|
⑥口⑤口 |--⑥-|
18
②②②① |--①-|
口①口口 |--②-|
口口口① |--③-|
口③③③ |----|
19
口口口口 |①-②-|
②④③① |③-④-|
④②①③ |--⑤-|
⑥⑤⑤⑥ |--⑥-|
20
⑥⑥③③ |--①-|
②口口② |②---|
口①①口 |③-④-|
④④⑤⑤ |⑤-⑥-|
21
⑥⑥⑥⑥ |①-②-|
②④③① |③-④-|
④②①③ |--⑤-|
口⑤⑤口 |--⑥-|
22
口口口口 |--①-|
口①口口 |②---|
口口①口
②口口②

⑥口口口
口⑥③③
④④口⑤ |③-④-|
口口⑤口 |⑤-⑥-|
23
⑤④①⑤ |①-②-|
②⑥⑥③ |③-④-|
口④①口 |--⑤-|
②口口③ |--⑥-|
24
⑤④①⑤ |①-②-|
②⑥⑥③ |③-④-|
口④①口 |--⑤-|
②口口③ |--⑥-|
25
口④①口 |①-②-|
②口口③ |③-④-|
口④①口
②口口③

⑥口口口
口⑥口口
口口⑥口 |--⑤-|
口⑤⑤口 |--⑥-|
26
口③②① |--①-|
②口①③ |--②-|
③①口② |--③-|
口②③口 |----|
27
①③②④ |①--②|
口⑤⑥口 |--③-|
口⑥⑤口 |-④--|
④②③① |⑤-⑥-|
28
①③②④ |①--②|
口⑤⑥口 |--③-|
口⑥⑤口 |-④--|
④②③① |⑤-⑥-|
29
①③②口 |①--②|
口口口口 |--③-|
口口口口
口②③①

口口口口
口口口④
④⑥⑥口 |-④--|
⑤口口⑤ |⑤-⑥-|
30
③②③② |①-②-|
①④①④ |③-④-|
⑥⑤⑤⑥ |--⑤-|
口口口口 |--⑥-|
31
①③②④ |①--②|
口⑤⑥口 |--③-|
口⑥⑤口 |-④--|
④②③① |⑤-⑥-|
32
①③②④ |①--②|
口⑤⑥口 |--③-|
口⑥⑤口 |-④--|
④②③① |⑤-⑥-|
33
①③②④ |①--②|
⑥⑤⑤⑥ |--③-|
口口口口 |-④--|
④②③① |⑤-⑥-|
34
①②①② |①---|
口口口口 |----|
②①②① |②---|
口口口口 |----|
35
⑤口口④ |①-②③|
①③口① |-④-⑤|
口②口口
①口口①

口口口口
⑨口口⑨
⑧口口⑧ |-⑥-⑦|
口⑦⑥口 |⑧-⑨-|
36
⑤口口④ |①-②③|
⑨③口⑨ |-④-⑤|
⑧②口⑧ |-⑥-⑦|
①⑦⑥① |⑧-⑨-|
37
口①②口 |①--②|
口①②口 |----|
口①②口 |----|
②口口① |----|
38
⑤口口④ |①-②③|
⑨口③⑨ |-④-⑤|
⑧②口⑧ |-⑥-⑦|
①⑦⑥① |⑧-⑨-|
39
④口口⑥ |①-②③|
⑧口③口 |-④-⑤|
口②⑨口 |-⑥-⑦|
①⑦⑤口 |⑧-⑨-|
40
④口口⑥ |①-②③|
⑧口③口 |-④-⑤|
口②⑨口 |-⑥-⑦|
①⑦⑤口 |⑧-⑨-|
41
口口③口 |①-②③|
口口②④ |-④⑤⑥|
⑤口口口
①口⑥①

⑭⑨口⑩
口⑦口口
口⑪⑭⑧ |⑦⑧⑨⑩|
⑬口口⑫ |⑪⑫⑬⑭|
42
⑥④①⑥ |①--②|
③⑤⑤② |--③-|
②口口③ |-④--|
口①④口 |⑤-⑥-|
43
口②②口 |①---|
口②口口 |----|
口②②口 |②---|
①②口① |----|
44
④口口① |①-②-|
⑤④①⑤ |③-④-|
②口口③ |--⑤-|
②⑥⑥③ |--⑥-|
45
②口口② |--①-|
④①①③ |②---|
口⑥⑤口 |③-④-|
④口口③ |⑤-⑥-|
46
④④①① |①-②-|
口口口口 |③-④-|
②口口③
口②③口

口口⑥⑥
⑥⑥口口
口⑤⑤口 |--⑤-|
口口口口 |--⑥-|
47
口口口口 |--①-|
④⑥⑤③ |②---|
①口口① |③-④-|
②⑥⑤② |⑤-⑥-|
48
④②③① |①-②-|
⑤口口⑤ |③-④-|
②④①③ |--⑤-|
口⑥⑥口 |--⑥-|
49
②口口② |--①-|
口①①口 |②---|
口⑥⑤口 |③-④-|
④口口③ |⑤-⑥-|
50
口②③口 |①-②-|
④⑤⑥① |③-④-|
②⑥⑤③ |--⑤-|
口④①口 |--⑥-|
51
口①②口 |--①-|
③口口③ |--②-|
口③③口 |--③-|
口②①口 |----|
52
④口口① |①-②-|
⑤④①⑤ |③-④-|
②口口③ |--⑤-|
②⑥⑥③ |--⑥-|
53
②口口② |--①-|
④①①③ |②---|
口⑥⑤口 |③-④-|
④口口③ |⑤-⑥-|
54
④④①① |①-②-|
口口口口 |③-④-|
②口口③
口②③口

口口⑥⑥
⑥⑥口口
口⑤⑤口 |--⑤-|
口口口口 |--⑥-|
55
⑥口口⑤ |--①-|
口④口口 |②---|
①④③① |③-④-|
②口③② |⑤-⑥-|
56
⑤④①⑤ |①-②-|
④口口① |③-④-|
②⑥⑥③ |--⑤-|
口②③口 |--⑥-|
57
口口口口 |①-②-|
②④①③ |③-④-|
口口口口
④②③①

⑤口⑤口
口口口口
口口口口 |--⑤-|
口⑥口⑥ |--⑥-|
58
④口口③ |①-②-|
④②①③ |③-④-|
④②①③
口口口口

口⑤⑤口
口⑥⑥口
口口口口 |--⑤-|
⑥⑤⑤⑥ |--⑥-|
59
①③口① |--①-|
③口口③ |--②-|
②①①② |--③-|
口口②口 |----|
60
②口口② |①---|
④①①④ |--②-|
②①①② |----|
③口口③ |③-④-|
61
口①①口 |----|
口①口口 |①---|
口①①口 |----|
口①口口 |----|


不確定度: 0

最終更新:2013年03月27日 20:54