IMAGE-MATERIAL- <REFLEC BEAT Edition>
Tatsh

BASIC

Level: 3
BPM: 260
Notes: 162

BPM: 130
1
口口口口 |----|
口口口口 |----|
口口口口 |----|
口口口口 |----|
2
口口口口 |----|
口口口口 |----|
口口口口 |----|
口口口口 |----|
3
口口口口 |①---|
①②③④ |②---|
口口口口 |③---|
口口口口 |④---|
4
口口口口 |①---|
口口口口 |②---|
④③②① |③---|
口口口口 |④---|
5
口口口口 |①---|
口①①口 |----|
口口口口 |----|
口口口口 |----|
6
口①①口 |----|
口口口口 |----|
口口口口 |①---|
口口口口 |----|
7
口口口口 |①---|
口口口口 |②---|
口①①口 |----|
口②②口 |----|
8
口口口口 |----|
口口口口 |----|
口口口口 |----|
口口口口 |----|
9
口口口口 |①---|
口口口口 |----|
②口口② |②---|
①口口① |----|
10
口口口口 |①---|
①②②① |----|
口②②口 |----|
口口口口 |②---|
11
口口口口 |①---|
①口口① |----|
①口口① |----|
口口口口 |----|
12
口口口口 |----|
口口口口 |----|
口口口口 |----|
口口口口 |----|
13
口口口口 |----|
口口口口 |----|
口口口口 |----|
口口口口 |----|
14
口口口口 |①---|
口①口口 |----|
口口口口 |----|
口口口口 |----|
15
口口口口 |①---|
口口①口 |----|
口口口口 |----|
口口口口 |----|
16
口口口口 |①---|
口口口口 |----|
口①口口 |----|
口口口口 |----|
17
口口口口 |①---|
口口口口 |----|
口口①口 |----|
口口口口 |----|

BPM: 260
18
口口口口 |①---|
①口口口 |----|
口口口口 |----|
口口口口 |----|
19
口口口口 |①---|
口①口口 |----|
口口口口 |----|
口口口口 |----|
20
口口口口 |①---|
口口口① |----|
口口口口 |----|
口口口口 |----|
21
口口口口 |①---|
口口①口 |----|
口口口口 |----|
口口口口 |----|
22
口口口口 |①---|
口口口口 |----|
①口口口 |----|
口口口口 |----|
23
口口口口 |①---|
口口口口 |----|
口①口口 |----|
口口口口 |----|
24
口口口口 |①---|
口口口口 |----|
口口口① |----|
口口口口 |----|
25
口口口口 |①---|
口口口口 |----|
口口①口 |----|
口口口口 |----|
26
口口口口 |①---|
口①口口 |----|
口口口口 |----|
口口口口 |----|
27
口口口口 |①---|
口口①口 |----|
口口口口 |----|
口口口口 |----|
28
口口口口 |①---|
口口口口 |----|
口口①口 |----|
口口口口 |----|
29
口口口口 |①---|
口口口口 |----|
口①口口 |----|
口口口口 |----|
30
口口口口 |①---|
口①口口 |----|
口口口口 |----|
口口口口 |----|
31
口口口口 |①---|
口口①口 |----|
口口口口 |----|
口口口口 |----|
32
口口口口 |①---|
口口口口 |----|
口口①口 |----|
口口口口 |----|
33
口口口口 |①---|
口口口口 |----|
口①口口 |----|
口口口口 |----|
34
口口口口 |----|
口口口口 |----|
口口口口 |----|
口口口口 |----|
35
①口口① |①---|
口口口口 |----|
口口口口 |----|
口口口口 |----|
36
口口口口 |①---|
口口口口 |----|
①口口① |----|
口口口口 |----|
37
口①①口 |①---|
口口口口 |----|
口口口口 |----|
口口口口 |----|
38
口口口口 |①---|
口口口① |----|
口口口口 |----|
口口口口 |----|
39
口口口口 |①---|
①口口口 |----|
口口口口 |----|
口口口口 |----|
40
口口口口 |①---|
口口口口 |----|
口①①口 |----|
口口口口 |----|
41
口①①口 |①---|
口口口口 |----|
口口口口 |----|
口口口口 |----|
42
口口口口 |①---|
①口口口 |----|
口口口口 |----|
口口口口 |----|
43
口口口口 |①---|
口口口① |----|
口口口口 |----|
口口口口 |----|
44
口口口口 |①---|
口口口口 |----|
口口①口 |----|
口口口口 |----|
45
口口口口 |①---|
口口口口 |----|
口①口口 |----|
口口口口 |----|
46
口口口口 |①---|
口口口口 |----|
口口口口 |----|
口①口口 |----|
47
口口口口 |①---|
口口口口 |----|
口口口口 |----|
①口口口 |----|
48
口口口口 |①---|
口口口口 |----|
口①口口 |----|
口口口口 |----|
49
口口口口 |①---|
口口口口 |----|
口口①口 |----|
口口口口 |----|
50
口口口口 |①---|
口①口口 |----|
口口口口 |----|
口口口口 |----|
51
①口口① |①---|
口口口口 |----|
口口口口 |----|
口口口口 |----|
52
口口口口 |----|
口口口口 |----|
口口口口 |----|
口口口口 |----|
53
口口口口 |①---|
口②口口 |----|
口口①口 |②---|
口口口口 |----|
54
口口①口 |①---|
口口口口 |----|
口口口口 |----|
口口口口 |----|
55
口口口口 |①---|
口口口口 |----|
口口口① |----|
口口口口 |----|
56
口口口口 |①---|
口口口口 |----|
口口口口 |----|
口口口① |----|
57
口口口口 |①---|
口口②口 |----|
口①口口 |②---|
口口口口 |----|
58
口①口口 |①---|
口口口口 |----|
口口口口 |----|
口口口口 |----|
59
口口口口 |①---|
口口口口 |----|
①口口口 |----|
口口口口 |----|
60
口口口口 |①---|
口口口口 |----|
口口口口 |----|
①口口口 |----|
61
口口口口 |①---|
口②口口 |----|
口口①口 |②---|
口口口口 |----|
62
口口①口 |①---|
口口口口 |----|
口口口口 |----|
口口口口 |----|
63
口口口口 |①---|
口口口口 |----|
口口口① |----|
口口口口 |----|
64
口口口口 |①---|
口口口口 |----|
口口口口 |----|
口口口① |----|
65
口口口口 |①---|
口口口口 |----|
口①①口 |----|
口口口口 |----|
66
口口口口 |①---|
口口口口 |----|
口口口口 |----|
口①①口 |----|
67
口①①口 |①---|
口口口口 |----|
口口口口 |----|
口口口口 |----|
68
口口口口 |①---|
口①①口 |----|
口口口口 |----|
口口口口 |----|
69
口口口口 |----|
口口口口 |----|
口口口口 |----|
口口口口 |----|
70
口口口口 |----|
口口口口 |----|
口口口口 |----|
口口口口 |----|
71
①②口口 |①---|
口口口口 |----|
口口口口 |②---|
口口口口 |----|
72
口口①② |①---|
口口口口 |----|
口口口口 |②---|
口口口口 |----|
73
口口口口 |①---|
口口②① |----|
口口口口 |②---|
口口口口 |----|
74
口口口口 |①---|
②①口口 |----|
口口口口 |②---|
口口口口 |----|
75
口口口口 |①---|
口口口口 |----|
①②口口 |②---|
口口口口 |----|
76
口口口口 |①---|
口口口口 |----|
口口①② |②---|
口口口口 |----|
77
口口口口 |①---|
口口口口 |----|
口口口口 |②---|
口口②① |----|
78
口口口口 |①---|
口口口口 |----|
口口口口 |----|
口①口口 |----|
79
口口②① |①---|
口口口口 |----|
口口口口 |②---|
口口口口 |----|
80
②①口口 |①---|
口口口口 |----|
口口口口 |②---|
口口口口 |----|
81
口口口口 |①---|
①②口口 |----|
口口口口 |②---|
口口口口 |----|
82
口口口口 |①---|
口口①② |----|
口口口口 |②---|
口口口口 |----|
83
口口口口 |①---|
口口口口 |----|
口口②① |②---|
口口口口 |----|
84
口口口口 |①---|
口口口口 |----|
口①口口 |----|
口口口口 |----|
85
口①①口 |①---|
口口口口 |----|
口口口口 |----|
口口口口 |----|
86
口口口口 |①---|
口口口口 |----|
口①①口 |----|
口口口口 |----|
87
口口口口 |①---|
①口口① |----|
口口口口 |----|
口口口口 |----|
88
口口口口 |①---|
②口口口 |----|
口①①口 |②---|
口口口口 |----|
89
口口口口 |①---|
口①②口 |----|
口口口口 |②---|
口口口口 |----|
90
口口口口 |①---|
口口口① |----|
口口口② |②---|
口口口口 |----|
91
口口口口 |①---|
口口口口 |----|
口②①口 |②---|
口口口口 |----|
92
口口口口 |①---|
口口口口 |----|
①口口口 |②---|
②口口口 |----|
93
口口口口 |①---|
口口口口 |----|
口口口口 |②---|
口①②口 |----|
94
口口口口 |①---|
口口口口 |----|
口口口口 |----|
口口口① |----|
95
口口口口 |①---|
口①①口 |----|
口口口口 |----|
口口口口 |----|
96
口口口口 |①---|
口口口口 |----|
①口口① |----|
口口口口 |----|
97
口口口口 |----|
口口口口 |----|
口口口口 |①---|
口①①口 |----|
98
口口口口 |①---|
口②②口 |----|
口①①口 |②---|
口口口口 |----|
99
口①①口 |①---|
口口口口 |----|
口口口口 |----|
口口口口 |----|
100
口口口口 |----|
口口口口 |----|
口口口口 |----|
口口口口 |----|
101
口口口口 |①---|
①口口① |----|
①口口① |----|
口口口口 |----|
102
口口口口 |----|
口口口口 |----|
口口口口 |----|
口口口口 |----|
103
口口口口 |----|
口口口口 |----|
口口口口 |----|
口口口口 |----|
104
口口口口 |----|
口口口口 |----|
口口口口 |----|
口口口口 |----|

BPM: 130
105
口口口口 |①---|
口①①口 |----|
口①①口 |----|
口口口口 |----|


不確定度: 0

最終更新:2013年03月27日 20:53