IMAGE-MATERIAL- <REFLEC BEAT Edition>
Tatsh

ADVANCED

Level: 7
BPM: 260
Notes: 423

BPM: 130
1
口口口口 |----|
口口口口 |----|
口口口口 |----|
口口口口 |----|
2
口口口口 |----|
口口口口 |----|
口口口口 |----|
口口口口 |----|
3
④口口④ |①---|
口③③口 |②---|
②口口② |③---|
口①①口 |④---|
4
口④④口 |①---|
③口口③ |②---|
口②②口 |③---|
①口口① |④---|
5
①口口① |①---|
口口口口 |----|
①口口① |----|
口口口口 |----|
6
口①①口 |----|
口口口口 |----|
口口口口 |①---|
口口口口 |----|
7
口口口口 |①---|
口口口口 |②---|
口①①口 |----|
②口口② |----|
8
口口口口 |----|
口口口口 |----|
口口口口 |----|
口口口口 |----|
9
口口口口 |①---|
口口②口 |----|
口②口① |②---|
口口①口 |----|
10
口①口口 |①---|
①②②口 |----|
口②②口 |----|
口②②口 |②---|
11
口口口口 |①---|
①口口① |----|
①口口① |----|
①口口① |----|
12
口口口口 |----|
口口口口 |----|
口口口口 |----|
口口口口 |----|
13
口口口口 |----|
口口口口 |----|
口口口口 |----|
口口口口 |----|
14
①②③口 |①②③-|
口⑤口④ |-④-⑤|
⑥口口口 |--⑥-|
口⑧⑦口 |⑦⑧--|
15
口③②① |①②③-|
④口⑤口 |-④-⑤|
口口口⑥ |--⑥-|
口⑦⑧口 |⑦⑧--|
16
①②③口 |①②③-|
口⑤口④ |-④-⑤|
⑥口口口 |--⑥-|
口⑧⑦口 |⑦⑧--|
17
口③②① |①②③-|
④口⑤口 |-④-⑤|
口口⑦⑥ |-⑥⑦-|
口口口口 |----|

BPM: 260
18
口②口口 |①-②-|
①口③口 |③---|
口口口口 |--④-|
⑤口④口 |--⑤-|
19
口口口口 |----|
①口口口 |①---|
口③②口 |②-③-|
口口口口 |----|
20
口口②口 |①-②-|
口③口① |③---|
口口口口 |--④-|
口④口⑤ |--⑤-|
21
口口口口 |----|
口口口① |①---|
口②③口 |②-③-|
口口口口 |----|
22
口②口口 |①-②-|
①口③口 |③---|
口口口口 |--④-|
⑤口④口 |--⑤-|
23
口口口口 |----|
①口口口 |①---|
口③②口 |②-③-|
口口口口 |----|
24
①口口口 |①---|
口口口② |②---|
③口口口 |③---|
口口口④ |④---|
25
口口①口 |①---|
口②口口 |②---|
口口③口 |③---|
口④口口 |④---|
26
口④口口 |①---|
②⑤口① |②-③-|
③口口口 |--④-|
口口口口 |⑤---|
27
口⑦口口 |①-②-|
口口④口 |--③-|
口③①口 |④-⑤-|
⑤口②⑥ |⑥-⑦-|
28
口口④口 |①---|
①口⑤② |②-③-|
口口口③ |--④-|
口口口口 |⑤---|
29
口口口口 |①-②-|
口④口口 |--③-|
口①③口 |④-⑤-|
⑤②口⑥ |⑥---|
30
口④口口 |①---|
②⑤口① |②-③-|
③口口口 |--④-|
口口口口 |⑤---|
31
口⑦口口 |①-②-|
口口④口 |--③-|
口③①口 |④-⑤-|
⑤口②⑥ |⑥-⑦-|
32
口口④口 |①---|
①口⑤② |②-③-|
口口口③ |--④-|
口口口口 |⑤---|
33
口口口口 |①---|
口口口口 |②---|
口①口④ |③---|
③口口② |④---|
34
口口②② |①---|
①口口口 |②---|
口口口口 |----|
口口口口 |----|
35
口口口口 |①---|
口口口口 |----|
②②口口 |②---|
口口①口 |----|
36
口口口口 |①---|
口口口口 |----|
口口②② |②---|
口①口口 |----|
37
①①①① |①---|
口口口口 |----|
口口口口 |----|
口口口口 |----|
38
口口口口 |①---|
④口②口 |②---|
口口口口 |③---|
①口③口 |④---|
39
口口①口 |①---|
口④口口 |②-③-|
口口②口 |----|
口③口口 |④---|
40
口口口口 |①---|
口④口口 |----|
口口③口 |--②-|
①口①② |③-④-|
41
①①口口 |①---|
①口口口 |----|
口口口口 |----|
口口口口 |----|
42
口口口① |----|
③口口口 |①---|
口口②口 |②---|
口口口口 |③---|
43
口②②口 |①---|
口口口口 |----|
口口口口 |②---|
①①口口 |----|
44
口口④口 |①---|
③口口口 |②---|
口口口① |③---|
口②口口 |④---|
45
口口口口 |①---|
口①口① |--②-|
口口口口 |----|
②口②口 |----|
46
口口口口 |----|
口口③口 |----|
口②口口 |--①-|
①口口口 |②-③-|
47
口口口① |①---|
口口口口 |--②-|
口口口② |----|
口③口口 |③---|
48
口口口口 |①---|
①口⑤③ |----|
口口②④ |②-③-|
口口口口 |④-⑤-|
49
口口口① |①---|
②口口口 |----|
口口口口 |②---|
口口口口 |----|
50
口口口口 |①---|
口口口口 |----|
口口口② |②---|
口①口口 |----|
51
口①①口 |①---|
口口口口 |----|
口口口口 |----|
口口口口 |----|
52
口口口口 |----|
口口口口 |----|
口口口口 |----|
口口口口 |----|
53
口口口口 |①---|
口①②口 |----|
口②①口 |②---|
口口口口 |----|
54
①口⑤口 |①---|
口口口② |②---|
③④口口 |③-④-|
口口口① |--⑤-|
55
口口口口 |----|
口口口口 |①---|
口口①口 |--②-|
②口口口 |----|
56
④口口④ |①---|
③口口③ |②---|
②口口② |③---|
口口①口 |④---|
57
口口口口 |①---|
口②①口 |----|
口①②口 |②---|
口口口口 |----|
58
口⑤口① |①---|
②口口口 |②---|
口口④③ |③-④-|
①口口口 |--⑤-|
59
口口口口 |----|
口口口口 |①---|
口①口口 |--②-|
口口口② |----|
60
④口口④ |①---|
③口口③ |②---|
②口口② |③---|
口①口口 |④---|
61
口口口口 |①---|
口①②口 |----|
口②①口 |②---|
口口口口 |----|
62
①口②口 |①---|
口③口口 |②---|
口口④口 |③---|
口口口① |④---|
63
口口口口 |①---|
口③③口 |--②-|
②口口② |----|
口①口口 |③---|
64
口①①口 |①---|
口口口口 |②---|
④口口④ |③---|
③②②③ |④---|
65
①口口① |①---|
口①①口 |----|
口口口口 |----|
口口口口 |----|
66
口口口口 |①---|
口口口口 |----|
口口口口 |----|
口①①口 |----|
67
①①①① |①---|
口口口口 |----|
口口口口 |----|
口口口口 |----|
68
口口口口 |①---|
口口口口 |----|
口①①口 |----|
①口口① |----|
69
口②③口 |①---|
①口口④ |②---|
口口口口 |③---|
口口口口 |④---|
70
口口口口 |①---|
口口口口 |②---|
①口口④ |③---|
口②③口 |④---|
71
口①①口 |①---|
口口口口 |----|
口②②口 |----|
口口口口 |②---|
72
口口口口 |①---|
①口口② |----|
口口口口 |②---|
口口口口 |----|
73
口①①口 |①---|
口口口口 |----|
口口口口 |②---|
②口口② |----|
74
口口口口 |①---|
②口口② |----|
口①①口 |②---|
口口口口 |----|
75
口①①口 |①---|
口口口口 |----|
②口口② |----|
口②②口 |②---|
76
口口口口 |①---|
口②①口 |----|
口口口口 |②---|
口口口口 |----|
77
口口②口 |①---|
口口口② |----|
口口口口 |②---|
口①①口 |----|
78
口口口口 |①---|
口①口口 |----|
①口②口 |②---|
口口口② |----|
79
口口②口 |①---|
①口口口 |----|
口口口② |----|
口①口口 |②---|
80
口口口口 |①---|
口①口口 |----|
口口②口 |②---|
口口口口 |----|
81
口②口口 |①---|
②口口口 |----|
口口口口 |②---|
口①①口 |----|
82
口口口口 |①---|
口口①口 |----|
口②口① |②---|
②口口口 |----|
83
①①①① |①---|
口口口口 |----|
口口口口 |②---|
口口口② |----|
84
口口口口 |①---|
口口口口 |----|
口口②口 |②---|
①口口口 |----|
85
口口①口 |①---|
口②口口 |----|
①口口口 |②---|
口口口② |----|
86
口②口口 |①---|
口口①口 |----|
口口口② |②---|
①口口口 |----|
87
口口口口 |①---|
①口口① |----|
口口口口 |----|
口②②口 |②---|
88
口①②口 |①---|
口口口口 |----|
口口口口 |②---|
口口口口 |----|
89
②口口② |①---|
口口口口 |----|
①口口① |②---|
口口口口 |----|
90
口口口口 |①---|
口口口口 |----|
口②②口 |②---|
口①①口 |----|
91
口口口口 |①---|
口①①口 |----|
②口口② |②---|
口口口口 |----|
92
①口口① |①---|
口口②口 |----|
口口口口 |②---|
口口口口 |----|
93
口口口口 |①---|
口①口口 |----|
口口口口 |②---|
口②②口 |----|
94
①口口口 |①---|
口口口② |②---|
③口口口 |③---|
口口口④ |④---|
95
口口口② |①---|
口①口口 |----|
口口①口 |----|
②口口口 |②---|
96
①口口口 |①---|
口口口② |----|
口口口口 |②---|
口口口口 |----|
97
口口口口 |①---|
口口②口 |----|
口②口口 |②---|
①口口① |----|
98
口口口② |①---|
口①口口 |----|
口口①口 |②---|
②口口口 |----|
99
①①口口 |①---|
口口②口 |----|
口口口口 |②---|
口口①① |----|
100
口口口口 |①---|
口口口口 |----|
口①口口 |②---|
口②②口 |----|
101
口②口口 |①---|
①口口① |----|
①口口① |②---|
①口口① |----|
102
口口②口 |①---|
口口口口 |----|
口①口口 |②---|
口口口口 |----|
103
口口口口 |①---|
②口口② |----|
口口①口 |②---|
口口口口 |----|
104
口口口口 |①---|
口口口口 |----|
口口口口 |----|
①口口① |----|

BPM: 130
105
口口口口 |①---|
口①①口 |----|
口①①口 |----|
口①①口 |----|


不確定度: 0

最終更新:2013年03月27日 20:53