IMAGE-MATERIAL- <REFLEC BEAT Edition>
Tatsh

EXTREME

Level: 9
BPM: 260
Notes: 660

BPM: 130
1
口口口口 |----|
口口口口 |----|
口口口口 |----|
口口口口 |----|
2
口口口口 |----|
口口口口 |----|
口口口口 |----|
口口口口 |----|
3
口①口④ |①---|
③②③② |②---|
①④①④ |③---|
③口②口 |④---|
4
①④①④ |①---|
口③口② |②---|
①口④口 |③---|
③②③② |④---|
5
口口口口 |①---|
①口口① |----|
①口口① |----|
口口口口 |----|
6
口口口口 |----|
口口口口 |----|
①口口① |①---|
口①①口 |----|
7
①口口① |①---|
口①①口 |②---|
口口口口 |----|
②②②② |----|
8
口口口口 |----|
口口口口 |----|
口口口口 |----|
口口口口 |----|
9
口口口口 |①---|
口②②口 |----|
②①①② |②---|
①口口① |----|
10
口①①口 |①---|
①口口① |----|
口口口口
口口口口

口②②口
口②②口
口②②口 |----|
口②②口 |②---|
11
①口口① |①---|
①口口① |----|
①口口① |----|
①口口① |----|
12
口口口口 |----|
口口口口 |----|
口口口口 |----|
口口口口 |----|
13
口口口口 |----|
口口口口 |----|
口口口口 |----|
口口口口 |----|
14
⑥口⑧⑦ |①②③-|
①②③口 |-④-⑤|
口⑤口④ |--⑥-|
口口口口 |⑦⑧--|
15
⑦⑧口⑥ |①②③-|
口③②① |-④-⑤|
④口⑤口 |--⑥-|
口口口口 |⑦⑧--|
16
⑥口⑧⑦ |①②③-|
①②③口 |-④-⑤|
口⑤口④ |--⑥-|
口口口口 |⑦⑧--|
17
⑥⑦口口 |①②③-|
口③②① |-④-⑤|
④口⑤口 |-⑥⑦-|
口口口口 |----|

BPM: 260
18
口⑥口④ |①-②-|
口口口口 |③---|
①②③口 |④-⑤-|
①⑦③⑤ |⑥-⑦-|
19
口口①⑤ |①---|
②口④③ |②---|
②口口口 |③-④-|
口口口口 |⑤---|
20
④口⑥口 |①-②-|
口口口口 |③---|
口③②① |④-⑤-|
⑤③⑦① |⑥-⑦-|
21
⑤①口口 |①---|
③④口② |②---|
口口口② |③-④-|
口口口口 |⑤---|
22
口⑥口④ |①-②-|
口口口口 |③---|
①②③口 |④-⑤-|
①⑦③⑤ |⑥-⑦-|
23
口口①⑤ |①---|
②口④③ |②---|
②口口口 |③-④-|
口口口口 |⑤---|
24
口口口口 |①---|
口口口口 |②---|
口口口口 |③---|
①②④③ |④---|
25
①②③④ |①②③④|
⑧⑦⑥⑤ |⑤⑥⑦⑧|
⑨口⑩口 |⑨-⑩-|
口⑪口⑫ |⑪-⑫-|
26
②③口口 |①---|
口口⑤④ |②-③-|
口①口口 |--④-|
口口口口 |⑤---|
27
口④口口 |①-②-|
③口口口 |--③-|
①②口⑦ |④-⑤-|
口⑤⑥口 |⑥-⑦-|
28
口口③② |①---|
④⑤①口 |②-③-|
口口口口 |--④-|
口口口口 |⑤---|
29
口口④口 |①-②-|
口口口③ |--③-|
口口②① |④-⑤-|
口⑥⑤口 |⑥---|
30
②③口口 |①---|
口①⑤④ |②-③-|
口口口口 |--④-|
口口口口 |⑤---|
31
口④口口 |①-②-|
③口口口 |--③-|
①②口⑦ |④-⑤-|
口⑤⑥口 |⑥-⑦-|
32
口口③② |①---|
④⑤①口 |②-③-|
口口口口 |--④-|
口口口口 |⑤---|
33
口③③口 |①---|
口口口口 |②---|
②口口① |③---|
④②①④ |④---|
34
③口口④ |①---|
口②②口 |②---|
口①①口 |③---|
口口口口 |④---|
35
口②④口 |①---|
口口口口 |②---|
口③③口 |③---|
①口口① |④---|
36
口口口口 |①---|
③口口③ |②---|
①口口① |③---|
口②④口 |④---|
37
①口口① |①---|
口①①口 |----|
口口口口 |----|
口口口口 |----|
38
口②②口 |①---|
口④④口 |②---|
口③③口 |③---|
口①①口 |④---|
39
①口口① |①---|
④口口④ |②-③-|
②口口② |----|
③口口③ |④---|
40
口口口口 |①---|
口④口口 |----|
口③④口 |--②-|
②①①口 |③-④-|
41
口口①① |①---|
口口口① |----|
口口口口 |----|
口口口口 |----|
42
口①③口 |----|
③口口① |①---|
口②口口 |②---|
②口口口 |③---|
43
口口口口 |①---|
口②②口 |----|
口口①口 |②---|
口口口① |----|
44
④③②① |①---|
口口口② |②---|
口口口③ |③---|
口口口④ |④---|
45
口口口口 |①---|
②口①口 |--②-|
②①口口 |----|
口②②口 |----|
46
口口口③ |----|
口口③② |----|
口③口口 |--①-|
③②口① |②-③-|
47
②①②口 |①---|
①②口口 |--②-|
②口②③ |----|
口口③口 |③---|
48
口口⑤口 |①---|
口④①⑤ |----|
③①④口 |②-③-|
②③口① |④-⑤-|
49
②口口① |①---|
口口口口 |----|
口口口口 |②---|
口口口② |----|
50
口①口口 |①---|
①②口口 |----|
口口②① |②---|
口口①口 |----|
51
②口①① |①---|
口口口① |②---|
①④口口 |③---|
①①口③ |④---|
52
④口口口 |①---|
口②①口 |②---|
口口③口 |③---|
口口口口 |④---|
53
口口②口 |①---|
口口②口 |----|
②②口① |②---|
口口①口 |----|
54
①①口② |①---|
①口口口 |②---|
口口③口 |③-④-|
⑤口④口 |--⑤-|
55
口口口口 |----|
口①口口 |①---|
口口口② |--②-|
口口口口 |----|
56
口口④① |①---|
③口口④ |②---|
口③口口 |③---|
口口②② |④---|
57
口②口口 |①---|
口②口口 |----|
①口②② |②---|
口①口口 |----|
58
②口①① |①---|
口口口① |②---|
口③口口 |③-④-|
口④口⑤ |--⑤-|
59
口口口口 |----|
口口①口 |①---|
②口口口 |--②-|
口口口口 |----|
60
①④口口 |①---|
④口口③ |②---|
口口③口 |③---|
②②口口 |④---|
61
口口②口 |①---|
口口②口 |----|
②②口① |②---|
口口①口 |----|
62
①①口口 |①---|
①口口④ |②---|
口口③④ |③---|
口②③④ |④---|
63
口③①② |①---|
③①口口 |--②-|
①口口口 |----|
②口口口 |③---|
64
口口口口 |①---|
口②②口 |②---|
④口①③ |③---|
口④③① |④---|
65
口①①口 |①---|
①口口① |②---|
口③④口 |③---|
②口口口 |④---|
66
口④③口 |①---|
口口口② |②---|
口口口口 |③---|
口①①口 |④---|
67
①口口① |①---|
口①①口 |----|
②口口② |②---|
口口口口 |----|
68
口口口口 |①---|
口口口口 |----|
口③②口 |②---|
③①①② |③---|
69
①口③口 |①-②-|
口②口④ |③-④-|
⑤口⑦口 |⑤-⑥-|
口⑥口⑧ |⑦-⑧-|
70
口③口① |①-②-|
④口②口 |③-④-|
口⑦口⑤ |⑤-⑥-|
⑧口⑥口 |⑦-⑧-|
71
①口①口 |①---|
口②口口 |②---|
口口③口 |③---|
口④口④ |④---|
72
口①④口 |①---|
口口口口 |②---|
③口口② |③---|
口口口口 |④---|
73
口口口口 |①---|
①④口口 |②---|
口口②③ |③---|
口口③口 |④---|
74
②③口④ |①---|
③口①口 |②---|
口①口口 |③---|
口口口口 |④---|
75
口口口口 |①---|
口①②口 |②---|
④③①口 |③---|
口④口口 |④---|
76
口②口口 |①---|
④口口① |②---|
口口③口 |③---|
口口口口 |④---|
77
口口③④ |①---|
口口口③ |②---|
口口口口 |③---|
口②口① |④---|
78
④口口口 |①---|
口①口口 |②---|
③口①口 |③---|
②③口口 |④---|
79
口口口口 |①---|
口②①口 |②---|
口①③④ |③---|
口口④口 |④---|
80
口口②口 |①---|
①口口④ |②---|
口③口口 |③---|
口口口口 |④---|
81
口④口口 |①---|
③口口口 |②---|
口口③口 |③---|
①③口② |④---|
82
口口②口 |①---|
口口口① |②---|
④①口④ |③---|
③口①③ |④---|
83
①口口① |①---|
②①①④ |②---|
口口③口 |③---|
口口口口 |④---|
84
口口口口 |①-②-|
口口口口 |③-④-|
①⑦⑥⑤ |--⑤-|
②③④口 |⑥-⑦-|
85
①③⑦① |①-②-|
②⑧④⑥ |③-④-|
口口口口 |⑤-⑥-|
口⑤⑤口 |⑦-⑧-|
86
②口口⑥ |①-②-|
③口口⑦ |③-④-|
⑤④⑧⑤ |⑤-⑥-|
①口口① |⑦-⑧-|
87
②④④口 |①---|
口①①口 |②---|
口③口口 |③---|
口①①口 |④---|
88
口口口① |①---|
③口口④ |②---|
口口②口 |③---|
口口口口 |④---|
89
口③③口 |①---|
口口口口 |②---|
①口口② |③---|
④口口④ |④---|
90
口口口口 |①---|
③口口③ |②---|
④①①④ |③---|
口②②口 |④---|
91
口①①口 |①---|
口口口口 |②---|
口②③口 |③---|
②④④③ |④---|
92
①口口① |①---|
口①①④ |②---|
③口口② |③---|
口口口口 |④---|
93
口口口口 |①---|
①口④口 |②---|
口③②口 |③---|
口口口口 |④---|
94
口口①① |①---|
②②口口 |②---|
口口③③ |③---|
④④口口 |④---|
95
④口口④ |①---|
口③①口 |②---|
④①口④ |③---|
口口口② |④---|
96
口口口口 |①---|
②口③口 |②---|
口口口口 |③---|
口④①口 |④---|
97
②口口口 |①---|
口③口① |②---|
口口③④ |③---|
口口口口 |④---|
98
③口口口 |①---|
口④①口 |②---|
②①④口 |③---|
口口口③ |④---|
99
口口①① |①---|
口口④口 |②---|
③口口② |③---|
①①口口 |④---|
100
口③②口 |①---|
口①口口 |②---|
口口口口 |③---|
口④④口 |④---|
101
①口④① |①---|
①③②① |②---|
①口口① |③---|
①口口① |④---|
102
口口口口 |①---|
口口口口 |②---|
口③④口 |③---|
口①②口 |④---|
103
口③④口 |①---|
口①②口 |②---|
口口口口 |③---|
口口口口 |④---|
104
口口口口 |①---|
①口口② |②---|
③口口④ |③---|
口口口口 |④---|

BPM: 130
105
口①①口 |①---|
口①①口 |----|
口①①口 |----|
口①①口 |----|


不確定度: 0

最終更新:2013年03月27日 20:52