Starry ☆ night
Qrispy Joybox feat.mao

BASIC

Level: 2
BPM: 184
Notes: 160

1
口口口口 |----|
口口口口 |----|
口口口口 |----|
口口口口 |----|
2
口口口口 |①---|
口口口口 |----|
①②口口 |----|
口口口口 |--②-|
3
口口口口 |----|
口口口口 |----|
口口口口 |----|
口口口口 |----|
4
口口口口 |①---|
口口口口 |----|
口口口② |----|
口口①口 |--②-|
5
口口口口 |----|
口口口口 |----|
口口口口 |----|
口口口口 |----|
6
口口口口 |①---|
口口②① |----|
口口口口 |----|
口口口口 |--②-|
7
口口口口 |----|
口口口口 |----|
口口口口 |----|
口口口口 |----|
8
口口口口 |①---|
②口口口 |----|
口①口口 |----|
口口口口 |--②-|
9
口口口口 |----|
口口口口 |----|
口口口口 |----|
口口口口 |----|
10
口口口口 |①---|
口口口口 |----|
①口口口 |②---|
口②口口 |----|
11
口口口口 |①---|
口口口口 |----|
口口口② |②---|
口口①口 |----|
12
口②②口 |①---|
口①①口 |----|
口口口口 |----|
口口口口 |--②-|
13
口口口口 |----|
口口口口 |----|
口口口口 |----|
口口口口 |----|
14
口口口口 |①---|
口①口口 |----|
口口②口 |②---|
口口口口 |----|
15
口口口口 |①---|
口口①口 |----|
口②口口 |②---|
口口口口 |----|
16
口口口口 |①---|
口①口口 |----|
口口②口 |②---|
口口口口 |----|
17
口口口口 |①---|
口口①口 |----|
口②口口 |②---|
口口口口 |----|
18
口口口口 |①---|
口②口口 |----|
口口①口 |②---|
口口口口 |----|
19
口口口口 |①---|
口口②口 |----|
口①口口 |②---|
口口口口 |----|
20
口口口口 |①---|
②口口② |----|
口①①口 |----|
口口口口 |--②-|
21
口口口口 |----|
口口口口 |----|
口口口口 |----|
口口口口 |----|
22
口口口口 |①---|
口口口口 |----|
口口口① |----|
口口口口 |----|
23
口口口口 |①---|
口口口口 |----|
口口口口 |----|
口口①口 |----|
24
口口口口 |①---|
口口口口 |----|
口口口口 |----|
口①口口 |----|
25
口口口口 |①---|
口口口口 |----|
①口口口 |----|
口口口口 |----|
26
口口口口 |①---|
口口口口 |----|
口①②口 |②---|
口口口口 |----|
27
口口口口 |①---|
口②①口 |----|
口口口口 |②---|
口口口口 |----|
28
口①口口 |①---|
口口②口 |----|
口口口口 |②---|
口口口口 |----|
29
口口口口 |①---|
口口口口 |----|
口①口口 |②---|
口口②口 |----|
30
口口口口 |①---|
口口口口 |----|
口口口① |----|
口口口口 |----|
31
口口口口 |①---|
口口口口 |----|
口口口口 |----|
口口①口 |----|
32
口口口口 |①---|
口口口口 |----|
口口口口 |----|
口①口口 |----|
33
口口口口 |①---|
口口口口 |----|
①口口口 |----|
口口口口 |----|
34
口口口口 |①---|
口口口口 |----|
口①②口 |②---|
口口口口 |----|
35
口口口口 |①---|
口②①口 |----|
口口口口 |②---|
口口口口 |----|
36
口①口口 |①---|
口口②口 |----|
口口口口 |②---|
口口口口 |----|
37
口口口口 |①---|
口口口口 |----|
口①口口 |②---|
口口②口 |----|
38
口口口口 |①---|
口口口口 |----|
口口口① |----|
口口口口 |----|
39
口口口口 |①---|
口①①口 |----|
口口口口 |----|
口口口口 |----|
40
口口口口 |①---|
口口口口 |----|
①口口口 |----|
口口口口 |----|
41
口口口口 |①---|
口口口口 |----|
口口口口 |----|
口①①口 |----|
42
口口口口 |①---|
口口口口 |----|
口口②① |②---|
口口口口 |----|
43
口口口口 |①---|
口口口口 |----|
②①口口 |②---|
口口口口 |----|
44
口口口口 |①---|
口口口口 |----|
口口口口 |②---|
口①②口 |----|
45
口口口口 |①---|
口口口口 |----|
①口口① |----|
口口口口 |----|
46
口口口口 |①---|
口口口口 |----|
口①口口 |②---|
口②口口 |----|
47
口口口口 |①---|
口口口口 |----|
口口①口 |②---|
口口②口 |----|
48
口口口口 |①---|
②口口② |----|
①口口① |②---|
口口口口 |----|
49
①口口① |①---|
口口口口 |----|
口口口口 |----|
口口口口 |----|
50
口口口口 |①---|
口①①口 |----|
口口口口 |----|
口口口口 |----|
51
口口口口 |①---|
口口口口 |----|
①口口口 |②---|
口②口口 |----|
52
口口口口 |①---|
口口口口 |----|
口口口② |②---|
口口①口 |----|
53
口口口口 |①---|
口①①口 |----|
口口口口 |----|
口口口口 |----|
54
口口口口 |①---|
口口口口 |----|
口②口口 |②---|
①口口① |----|
55
口口口口 |①---|
口②①口 |----|
口口口口 |②---|
口口口口 |----|
56
①口口① |①---|
②口口② |----|
口口口口 |②---|
口口口口 |----|
57
口口口口 |①---|
口口口口 |----|
①口口① |----|
口口口口 |----|
58
口口口口 |①---|
口口②口 |----|
口口①口 |②---|
口口口口 |----|
59
口口口口 |①---|
口②口口 |----|
口①口口 |②---|
口口口口 |----|
60
口口口口 |①---|
①口口① |----|
②口口② |②---|
口口口口 |----|
61
口口口口 |①---|
口口口口 |----|
口②②口 |②---|
口①①口 |----|
62
口口口口 |①---|
口口口口 |----|
口口②口 |②---|
①口口① |----|
63
口口口口 |①---|
口①②口 |----|
口口口口 |②---|
口口口口 |----|
64
口口口口 |①---|
口口口口 |----|
①口口① |----|
口口口口 |----|
65
①口口① |①---|
口口口口 |----|
口口口口 |----|
口口口口 |----|
66
口口口口 |①---|
口口①口 |----|
口①口口 |----|
口口口口 |----|
67
口口口口 |①---|
口①口口 |----|
口口①口 |----|
口口口口 |----|
68
②口口② |①---|
口口口口 |----|
口①①口 |----|
口口口口 |--②-|
69
口口口口 |----|
口口口口 |----|
口口口口 |----|
口口口口 |----|
70
口口口口 |①---|
口①口口 |----|
口口②口 |②---|
口口口口 |----|
71
口口口口 |①---|
口口①口 |----|
口②口口 |②---|
口口口口 |----|
72
口口口口 |①---|
口①口口 |----|
口口②口 |②---|
口口口口 |----|
73
口口口口 |①---|
口口①口 |----|
口②口口 |②---|
口口口口 |----|
74
口口口口 |①---|
口②口口 |----|
口口①口 |②---|
口口口口 |----|
75
口口口口 |①---|
口口②口 |----|
口①口口 |②---|
口口口口 |----|
76
②口口② |①---|
口口口口 |----|
口①①口 |----|
口口口口 |--②-|
77
口口口口 |----|
口口口口 |----|
口口口口 |----|
口口口口 |----|
78
口口口口 |①---|
口口②口 |----|
①②口① |----|
口口口口 |--②-|
79
口口口口 |----|
口口口口 |----|
口口口口 |----|
口口口口 |----|
80
口口口口 |①---|
口②口口 |----|
①口②① |----|
口口口口 |--②-|
81
口口口口 |----|
口口口口 |----|
口口口口 |----|
口口口口 |----|
82
口口口口 |①---|
口口②口 |----|
①②口① |----|
口口口口 |--②-|
83
口口口口 |----|
口口口口 |----|
口口口口 |----|
口口口口 |----|
84
口口口口 |①---|
口②口口 |----|
①口②① |----|
口口口口 |--②-|


不確定度: 0

最終更新:2013年03月27日 20:52