Starry ☆ night
Qrispy Joybox feat.mao

ADVANCED

Level: 5
BPM: 184
Notes: 312

1
口口口口 |----|
口口口口 |----|
口口口口 |----|
口口口口 |----|
2
口口口口 |①---|
①口口② |----|
①口口② |----|
口口口口 |--②-|
3
口口口口 |----|
口口口口 |----|
口口口口 |----|
口口口口 |----|
4
口②②口 |①---|
口口口口 |----|
口口口口 |----|
口①①口 |--②-|
5
口口口口 |----|
口口口口 |----|
口口口口 |----|
口口口口 |----|
6
口口口口 |①---|
①口口③ |----|
①口②③ |②---|
口口口口 |--③-|
7
口口口口 |----|
口口口口 |----|
口口口口 |----|
口口口口 |----|
8
口③③口 |①---|
口②口口 |----|
口口口口 |②---|
口①①口 |--③-|
9
口口口口 |----|
口口口口 |----|
口口口口 |----|
口口口口 |----|
10
口口口口 |①---|
口口口口 |----|
①口口口 |②---|
口②口口 |----|
11
口口口口 |①---|
口口口口 |----|
口口口② |②---|
口口①口 |----|
12
⑤口口④ |①---|
①口口口 |②-③-|
口口②口 |--④-|
口③口口 |--⑤-|
13
口口口口 |----|
口①②口 |----|
口②①口 |----|
口口口口 |①-②-|
14
③④②① |①---|
口口口口 |②---|
口口口口 |③---|
口口口口 |④---|
15
口口口口 |①---|
口④①口 |②---|
口②③口 |③---|
口口口口 |④---|
16
口口口口 |①---|
①口口③ |②---|
②口口④ |③---|
口口口口 |④---|
17
口口口口 |①---|
口①④口 |②---|
口③②口 |③---|
口口口口 |④---|
18
③④②① |①---|
口口口口 |②---|
口口口口 |③---|
口口口口 |④---|
19
口口口口 |①---|
口④①口 |②---|
口②③口 |③---|
口口口口 |④---|
20
①口口① |①---|
②④④② |②---|
口③③口 |③---|
口⑤⑤口 |④-⑤-|
21
口口口口 |----|
口口口口 |----|
口口口口 |----|
口口口口 |----|
22
口口口口 |①---|
口口口口 |----|
口①①口 |②-③-|
②③④⑤ |④-⑤-|
23
口口口口 |--①-|
口口口① |--②-|
口②②口 |----|
口口口口 |----|
24
口口口口 |----|
口口口口 |----|
口口口口 |①-②-|
④③②① |③-④-|
25
口③③口 |--①-|
①口口口 |--②-|
口②②口 |--③-|
口口口口 |----|
26
口口口口 |①---|
口①①口 |----|
②口口⑤ |②-③-|
口③④口 |④-⑤-|
27
②口口① |--①-|
口口④口 |--②-|
③口口口 |--③-|
口口口口 |--④-|
28
口①①口 |①---|
口口口② |----|
口③口② |②---|
口口口口 |--③-|
29
③口口③ |①---|
①口②口 |--②-|
①口口口 |③---|
口口口口 |----|
30
②口口④ |①---|
口口口③ |----|
口①①口 |②---|
口口口口 |③-④-|
31
口口口口 |--①-|
口口①口 |--②-|
口②口口 |--③-|
③口口口 |----|
32
口口口口 |----|
口口③口 |----|
口④口② |①-②-|
口口①口 |③-④-|
33
口①口口 |--①-|
口口口口 |--②-|
②口②口 |----|
口口口口 |----|
34
口口口口 |①---|
口①①口 |----|
②③④⑤ |②-③-|
口口口口 |④-⑤-|
35
②口口① |--①-|
口③口口 |--②-|
口口④口 |--③-|
口口口口 |--④-|
36
口①①口 |①---|
②口口② |----|
口口口口 |②---|
口口口口 |----|
37
口口口口 |①---|
③①②④ |②---|
口口口口 |③---|
④②①③ |④---|
38
口②口② |①---|
口口口口 |----|
口①①口 |②---|
③口③口 |--③-|
39
口口口口 |----|
口口口口 |----|
口口口口 |----|
口口口口 |----|
40
①口①口 |----|
口口口口 |----|
口口口口 |①---|
口②口② |--②-|
41
口③③口 |----|
①口口② |①---|
①口口② |②---|
口口口口 |③---|
42
②口口口 |----|
口口③口 |----|
①口口口 |①---|
口口口口 |②-③-|
43
口口口口 |--①-|
口①口口 |--②-|
口③②口 |--③-|
④口口④ |--④-|
44
口口口口 |----|
②口口② |----|
口口口口 |--①-|
口①①口 |--②-|
45
口口口口 |----|
口口③口 |①---|
口①②口 |②---|
口口口口 |③---|
46
④口口口 |①---|
口口口② |----|
①口③① |②-③-|
口口口口 |--④-|
47
口口口口 |----|
口口①口 |①---|
口②口口 |②---|
口口③口 |③---|
48
②口口② |①---|
口③口口 |----|
口口③口 |②---|
①口口① |--③-|
49
口口口口 |----|
口口①口 |----|
口②口口 |----|
口口口口 |①-②-|
50
口口口口 |----|
口口口口 |----|
口口口口 |----|
口口口口 |----|
51
口口口口 |----|
口口口口 |①---|
口③③口 |②---|
②①①② |③---|
52
②口口② |①---|
口口口口 |----|
①口口① |----|
口口口口 |②---|
53
口口口口 |①---|
口①①口 |----|
口①①口 |----|
口口口口 |----|
54
口口口口 |①---|
口①①口 |----|
口口口口
口口口口

②口口③
口口④口
口口口口 |②---|
口口口口 |③-④-|
55
口口口口 |--①-|
口口口口 |--②-|
①③②口 |--③-|
口口口口 |----|
56
②口口② |①---|
口口口口 |----|
口③③口 |②---|
①口口① |--③-|
57
口口口口 |----|
口③口口 |----|
口口②口 |--①-|
口①口口 |②-③-|
58
口口口口 |--①-|
口⑥③口 |②-③-|
口②⑤口 |--④-|
口④①口 |⑤-⑥-|
59
口口口口 |--①-|
②口口① |--②-|
口③③口 |--③-|
口口口口 |----|
60
②口口① |①---|
口③口口 |②-③-|
口口口口 |--④-|
⑤口口④ |--⑤-|
61
③口口③ |--①-|
①口口口 |--②-|
口②②口 |--③-|
口口口口 |----|
62
①口②③ |----|
口口口口 |----|
口口口口 |①---|
口口口口 |②-③-|
63
口口口口 |--①-|
口口③口 |--②-|
②④口① |--③-|
口口口口 |--④-|
64
口口口口 |①---|
④③口④ |----|
口口②口 |--②-|
口口①口 |③-④-|
65
口口口① |----|
口口口② |----|
口口口口 |----|
口口口口 |①-②-|
66
①口口口 |----|
②口口口 |----|
口口口口 |----|
口口口口 |①-②-|
67
口口口口 |----|
口口口口 |----|
口口口口 |----|
口口口口 |----|
68
口④④口 |①---|
③口口① |②-③-|
口②口口 |--④-|
口⑤⑤口 |--⑤-|
69
口口口口 |----|
①口口口 |----|
①口口口 |----|
口口口口 |①---|
70
③④②口 |①---|
口口口① |②---|
口口口① |③---|
口口口口 |④---|
71
口口口口 |①---|
口④①口 |②---|
口②③口 |③---|
口口口口 |④---|
72
口口口口 |①---|
①口口③ |②---|
②口口④ |③---|
口口口口 |④---|
73
口口口口 |①---|
口①④口 |②---|
口③②口 |③---|
口口口口 |④---|
74
③④②① |①---|
口口口口 |②---|
口口口口 |③---|
口口口口 |④---|
75
口口口口 |①---|
口④①口 |②---|
口②③口 |③---|
口口口口 |④---|
76
⑤口口④ |①---|
①口口① |②-③-|
口②口口 |--④-|
口口③口 |--⑤-|
77
口口口口 |----|
口①口口 |----|
口口①口 |----|
口口口口 |①---|
78
口口口口 |①---|
口口①② |----|
口①口② |----|
口口口口 |--②-|
79
口口口口 |----|
口口口口 |----|
口口口口 |----|
口口口口 |----|
80
口②②口 |①---|
口口口口 |----|
口口口口 |----|
口①①口 |--②-|
81
口口口口 |----|
口口口口 |----|
口口口口 |----|
口口口口 |----|
82
口口口口 |①---|
①口口② |----|
①口口② |----|
口口口口 |--②-|
83
口口口口 |----|
口口口口 |----|
口口口口 |----|
口口口口 |----|
84
口②②口 |①---|
口口口口 |----|
口口口口 |----|
口①①口 |--②-|


不確定度: 0

最終更新:2013年03月27日 20:51