Starry ☆ night
Qrispy Joybox feat.mao

EXTREME

Level: 8
BPM: 184
Notes: 558

1
口口口口 |----|
口口口口 |----|
口口口口 |----|
口口口口 |----|
2
口口口② |①---|
口口②口 |----|
口①口口 |----|
①口口口 |--②-|
3
口口口口 |----|
口口口口 |----|
口口口口 |----|
口口口口 |----|
4
②口口口 |①---|
口②口口 |----|
口口①口 |----|
口口口① |--②-|
5
口口口口 |----|
口口口口 |----|
口口口口 |----|
口口口口 |----|
6
口口口③ |①---|
②口③口 |----|
口①口口 |②---|
①口口口 |--③-|
7
口口口口 |----|
口口口口 |----|
口口口口 |----|
口口口口 |----|
8
③口口口 |①---|
口③口② |----|
口口①口 |②---|
口口口① |--③-|
9
口口口口 |----|
口口口口 |----|
口口口口 |----|
口口口口 |----|
10
④口口⑧ |①-②-|
口⑤①口 |③-④-|
口②⑥口 |⑤-⑥-|
口⑦③口 |⑦-⑧-|
11
④口口⑧ |①-②-|
口⑤①口 |③-④-|
口②⑥口 |⑤-⑥-|
⑦口③口 |⑦-⑧-|
12
口①口口 |①---|
①口①② |②-③-|
口①口②
口③③口

④口口⑤
口④⑤口
口⑤④口 |--④-|
⑤口口④ |--⑤-|
13
①口口② |----|
口②①口 |----|
①口口② |----|
口②①口 |①-②-|
14
口②④口 |①-②-|
①口口③ |③-④-|
口⑤⑦口 |⑤-⑥-|
⑥口口⑧ |⑦-⑧-|
15
⑦口口⑤ |①-②-|
口③①口 |③-④-|
⑥口口⑧ |⑤-⑥-|
口②④口 |⑦-⑧-|
16
口口口口 |①-②-|
③⑦⑤① |③-④-|
口④②口 |⑤-⑥-|
口⑧⑥口 |⑦-⑧-|
17
口口口口 |①-②-|
口⑧⑥口 |③-④-|
①⑤⑦③ |⑤-⑥-|
④口口② |⑦-⑧-|
18
口②④口 |①-②-|
①口口③ |③-④-|
口⑤⑦口 |⑤-⑥-|
⑥口口⑧ |⑦-⑧-|
19
⑦口口⑤ |①-②-|
口③①口 |③-④-|
⑥口口⑧ |⑤-⑥-|
口②④口 |⑦-⑧-|
20
④①①④ |①---|
①口口① |②---|
⑤②③⑤ |③---|
③⑤⑤② |④-⑤-|
21
口口口口 |----|
口口口口 |----|
口口口口 |----|
口口口口 |----|
22
口口口口 |①---|
口口口口 |----|
口①①口
口口口口

口口口口
口口④口
口⑤口③ |②-③-|
口口②口 |④-⑤-|
23
①口①口 |--①-|
口口口口 |--②-|
口口口口 |----|
口②口② |----|
24
口口口口 |----|
口③口口 |----|
②口④口 |①-②-|
口①口口 |③-④-|
25
③①③① |--①-|
口口口口 |--②-|
口②口口 |--③-|
口口②口 |----|
26
口②口口 |①---|
③⑤④口 |----|
口④⑤③ |②-③-|
①口②① |④-⑤-|
27
①口口① |--①-|
口④口口 |--②-|
③口④口 |--③-|
口口口② |--④-|
28
①口口② |①---|
口③③口 |----|
口口口口 |②---|
①口口② |--③-|
29
口③③口 |①---|
口口口口 |--②-|
①口口② |③---|
口①②口 |----|
30
②口口③ |①---|
口口④口 |----|
口口口口 |②---|
①口口① |③-④-|
31
口口口口 |--①-|
③①口口 |--②-|
②③②口 |--③-|
③①③口 |----|
32
口口口口 |----|
口口③口 |----|
口④口② |①-②-|
口口①口 |③-④-|
33
①口①口 |--①-|
口口口口 |--②-|
口口口口 |----|
口②口② |----|
34
口口口口 |①---|
口口①口 |----|
口①口口
口口口口

口口口口
③口口④
口⑤口口 |②-③-|
口⑤口② |④-⑤-|
35
③口口④ |--①-|
口③④口 |--②-|
口口①口 |--③-|
②口①② |--④-|
36
口①①口 |①---|
③口口③ |②---|
口口口口 |③---|
②④②④ |④---|
37
口③④口 |①---|
④①②③ |②---|
③②①④ |③---|
口④③口 |④---|
38
①口口① |①---|
口③口② |----|
③③②口 |②---|
③③口② |--③-|
39
口口口口 |----|
口口口口 |----|
口口口口 |----|
口口口口 |----|
40
①②①② |----|
口口口口 |----|
①②①② |①---|
口口口口 |--②-|
41
③口③口 |----|
①②①② |①---|
口③口③ |②---|
②①②① |③---|
42
③口②② |----|
③口口口 |----|
口口口口 |①---|
①①口口 |②-③-|
43
口口口口 |--①-|
④②③④ |--②-|
口③②口 |--③-|
口口①① |--④-|
44
口②②口 |----|
②口口② |----|
①口口① |--①-|
口①①口 |--②-|
45
口口口② |----|
口口③口 |①---|
口①口口 |②---|
口口口口 |③---|
46
口口口口 |①---|
①口口口 |----|
口口口口
口口①口

口口④口
④口口②
口口③口 |②-③-|
口口口口 |--④-|
47
口口口口 |----|
口①口② |①---|
口③③① |②---|
口②口口 |③---|
48
口口口口 |①---|
口口口口 |----|
口口口口
①口口①

口②口②
②口②口
③口③口 |②---|
口③口③ |--③-|
49
口口口① |----|
口口②口 |----|
口口口口 |----|
口口口口 |①-②-|
50
口口口口 |①---|
④口口口 |②---|
②③口口 |③---|
口①口口 |④---|
51
口④口口 |①---|
④①口④ |②---|
口③②③ |③---|
②③②口 |④---|
52
①口口① |①---|
④口①④ |②---|
口③②口 |③---|
③③②② |④---|
53
口①①口 |①---|
口①①口 |----|
①口口①
口口口口

口口口口
⑨⑧⑦⑥
口口口口 |②③④⑤|
②③④⑤ |⑥⑦⑧⑨|
54
口①①口 |①---|
口口口口 |----|
口①①口
口口口口

口④口口
④口口口
③口口② |②---|
③口口② |③-④-|
55
③口①② |--①-|
口②③① |--②-|
③口口② |--③-|
口②③口 |----|
56
口口①口 |①---|
口口口① |----|
口①①口
口口口口

口②③口
②口口③
③口口② |②---|
口③②口 |--③-|
57
⑥口口口 |--①-|
⑥③口口 |②-③-|
口⑤②⑤ |--④-|
④口④① |⑤-⑥-|
58
⑥口口③ |--①-|
⑥口口③ |②-③-|
②⑤②⑤ |--④-|
④①④① |⑤-⑥-|
59
口①口② |--①-|
口③③口 |--②-|
②口①口 |--③-|
口口口口 |----|
60
口口①口 |①---|
②④④③ |②-③-|
③④④② |--④-|
⑤①口⑤ |--⑤-|
61
③①①③ |--①-|
口③③口 |--②-|
②口口② |--③-|
口②②口 |----|
62
口口④口 |①---|
口口口④ |----|
②口口③ |②---|
①②③① |③-④-|
63
口①口口 |--①-|
①②③口 |--②-|
④③②口 |--③-|
口口④口 |--④-|
64
④②④口 |①---|
③④③口 |----|
④②④① |--②-|
口①口口 |③-④-|
65
口口①口 |----|
②口口口 |----|
口口口① |----|
口②口口 |①-②-|
66
口①口口 |----|
口口口② |----|
①口口口 |----|
口口②口 |①-②-|
67
口口口口 |----|
口口口口 |----|
口口口口 |----|
口口口口 |----|
68
①③④① |①---|
口③④口 |②-③-|
⑤口口⑤ |--④-|
②⑤⑤② |--⑤-|
69
口口口口 |----|
口①①口 |----|
口口口口 |----|
口口口口 |①---|
70
口②④口 |①-②-|
①口口③ |③-④-|
口⑤⑦口 |⑤-⑥-|
⑥口口⑧ |⑦-⑧-|
71
⑦口口⑤ |①-②-|
口③①口 |③-④-|
⑥口口⑧ |⑤-⑥-|
口②④口 |⑦-⑧-|
72
口口口口 |①-②-|
③⑦⑤① |③-④-|
口④②口 |⑤-⑥-|
口⑧⑥口 |⑦-⑧-|
73
口口口口 |①-②-|
口⑧⑥口 |③-④-|
①⑤⑦③ |⑤-⑥-|
④口口② |⑦-⑧-|
74
口②④口 |①-②-|
①口口③ |③-④-|
口⑤⑦口 |⑤-⑥-|
⑥口口⑧ |⑦-⑧-|
75
⑦口⑧⑤ |①-②-|
口③①口 |③-④-|
⑥口口口 |⑤-⑥-|
口②④口 |⑦-⑧-|
76
口①口口 |①---|
①口①② |②-③-|
口①口②
口③③口

④口口⑤
口④⑤口
口⑤④口 |--④-|
⑤口口④ |--⑤-|
77
口口口口 |----|
口①口① |----|
口口口口 |----|
①口①口 |①---|
78
①口①② |①---|
口口②口 |----|
口①口① |----|
口口口口 |--②-|
79
口口口口 |----|
口口口口 |----|
口口口口 |----|
口口口口 |----|
80
②口口口 |①---|
口②口口 |----|
口口①口 |----|
口口口① |--②-|
81
口口口口 |----|
口口口口 |----|
口口口口 |----|
口口口口 |----|
82
口口口② |①---|
口口②口 |----|
口①口口 |----|
①口口口 |--②-|
83
口口口口 |----|
口口口口 |----|
口口口口 |----|
口口口口 |----|
84
②口口口 |①---|
口②口口 |----|
口口①口 |----|
口口口① |--②-|


不確定度: 0

最終更新:2013年03月27日 20:51