ビューティフル レシート
Lucky Vacuum

BASIC

Level: 4
BPM: 196
Notes: 249

1
口口口口 |----|
口口口口 |----|
口口口口 |----|
口口口口 |----|
2
口口口口 |①---|
口口①口 |----|
口口口口 |----|
口口口口 |----|
3
口口口口 |①---|
口口口口 |----|
口①口口 |----|
口口口口 |----|
4
口口口口 |①---|
口口口口 |----|
口口①口 |----|
口口口口 |----|
5
口口口口 |①---|
口①口口 |----|
口口口口 |----|
口口口口 |----|
6
口口口口 |①---|
口②口口 |----|
口①口口 |②---|
口口口口 |----|
7
口①②口 |①---|
口口口口 |----|
口口口口 |②---|
口口口口 |----|
8
口口口口 |①---|
口①①口 |----|
口口口口 |----|
口口口口 |----|
9
①口口① |①---|
②口口② |----|
口口口口 |②---|
口口口口 |----|
10
口口口口 |①---|
口口口口 |----|
口①②口 |②---|
口口口口 |----|
11
口口口口 |①---|
口②①口 |----|
口口口口 |②---|
口口口口 |----|
12
口口口口 |①---|
②口口口 |----|
①口口口 |②---|
口口口口 |----|
13
口口口口 |①---|
口口口② |----|
口口口① |②---|
口口口口 |----|
14
口口口口 |①---|
口口口口 |----|
口②①口 |②---|
口口口口 |----|
15
口口口口 |①---|
口①②口 |----|
口口口口 |②---|
口口口口 |----|
16
口口口口 |①---|
口口口② |----|
口口口① |②---|
口口口口 |----|
17
口口口口 |①---|
②口口口 |----|
①口口口 |②---|
口口口口 |----|
18
口口口口 |①---|
口口口口 |----|
口①①口 |----|
口口口口 |----|
19
口口口口 |①---|
①②③口 |②---|
口口口口 |③---|
口口口口 |----|
20
口口口口 |①---|
口口口口 |②---|
口③②① |③---|
口口口口 |----|
21
口②③口 |①---|
①口口④ |②---|
口口口口 |③---|
口口口口 |④---|
22
口②②口 |①---|
口口口口 |----|
口①①口 |②---|
口口口口 |----|
23
口口口口 |①---|
①②③口 |②---|
口口口口 |③---|
口口口口 |----|
24
口口口口 |①---|
口③③口 |②---|
口口②① |③---|
口口口口 |----|
25
口口口口 |①---|
②口口② |----|
①口口① |②---|
口口口口 |----|
26
口①①口 |①---|
口口口口 |----|
口②②口 |②---|
口口口口 |----|
27
口口口口 |①---|
①②③口 |②---|
口口口口 |③---|
口口口口 |----|
28
口口口口 |①---|
口口口口 |②---|
口③②① |③---|
口口口口 |----|
29
口②③口 |①---|
①口口④ |②---|
口口口口 |③---|
口口口口 |④---|
30
口②②口 |①---|
口口口口 |----|
口①①口 |②---|
口口口口 |----|
31
口口口口 |①---|
①②③口 |②---|
口口口口 |③---|
口口口口 |----|
32
口口口口 |①---|
口③③口 |②---|
口口②① |③---|
口口口口 |----|
33
口口口口 |①---|
②口口② |----|
①口口① |②---|
口口口口 |----|
34
口①①口 |①---|
口口口口 |----|
口②②口 |②---|
口口口口 |----|
35
口②②口 |①---|
口口口① |----|
口口口口 |②---|
口口口口 |----|
36
口口口口 |①---|
①②口口 |②---|
口口③口 |③---|
口口口口 |----|
37
口②②口 |①---|
口口口① |----|
口口口口 |②---|
口口口口 |----|
38
口口口口 |①---|
①②口口 |②---|
口口③口 |③---|
口口口口 |----|
39
口②②口 |①---|
①口口口 |----|
口口口口 |②---|
口口口口 |----|
40
口口口口 |①---|
口口②① |②---|
口③口口 |③---|
口口口口 |----|
41
口口口口 |①---|
①口口① |----|
口口口口 |②---|
②口口② |----|
42
口口口口 |①---|
口①①口 |----|
口口口口 |②---|
口②②口 |----|
43
口口口口 |①---|
①口口① |----|
口口口口 |----|
口口口口 |----|
44
口口口口 |----|
口口口口 |----|
口口口口 |----|
口口口口 |----|
45
口口口口 |----|
口口口口 |----|
口口口口 |----|
口口口口 |----|
46
口口口口 |----|
口口口口 |----|
口口口口 |----|
口口口口 |----|
47
口口口口 |①---|
口口口① |----|
口口②口 |②---|
口口口口 |----|
48
口口口口 |①---|
②口口口 |----|
口①口口 |②---|
口口口口 |----|
49
口①①口 |①---|
口口口口 |----|
口口口口 |----|
口口口口 |----|
50
口口口口 |①---|
口①①口 |----|
口口口口 |----|
口口口口 |----|
51
口口口口 |①---|
口口口口 |----|
①①口口 |----|
口口口口 |----|
52
口口口口 |①---|
口口口口 |----|
口口①① |----|
口口口口 |----|
53
口口口口 |①---|
①①口口 |----|
口口口口 |----|
口口口口 |----|
54
口口口口 |①---|
口口①① |----|
口口口口 |----|
口口口口 |----|
55
口口口口 |①---|
口口口口 |----|
①①口口 |----|
口口口口 |----|
56
口口口口 |①---|
口口口口 |----|
口口①① |----|
口口口口 |----|
57
口口口口 |①---|
①①口口 |----|
口口口口 |----|
口口口口 |----|
58
口口口口 |①---|
口口①① |----|
口口口口 |----|
口口口口 |----|
59
口口③口 |①---|
口口②口 |②---|
口口①口 |③---|
口口口口 |----|
60
口③④口 |①---|
口②口口 |②---|
口①口口 |③---|
口口口口 |④---|
61
口口口口 |①---|
④③②① |②---|
口口口口 |③---|
口口口口 |④---|
62
口口口口 |①---|
口口口口 |②---|
①②③④ |③---|
口口口口 |④---|
63
口③②口 |①---|
④口口① |②---|
口口口口 |③---|
口口口口 |④---|
64
口②②口 |①---|
口口口口 |----|
口①①口 |②---|
口口口口 |----|
65
口口口口 |①---|
④③②① |②---|
口口口口 |③---|
口口口口 |④---|
66
口口口口 |①---|
口③③口 |②---|
①②口口 |③---|
口口口口 |----|
67
口口口口 |①---|
②口口② |----|
①口口① |②---|
口口口口 |----|
68
口①①口 |①---|
口口口口 |----|
口②②口 |②---|
口口口口 |----|
69
口口口口 |①---|
④③②① |②---|
口口口口 |③---|
口口口口 |④---|
70
口口口口 |①---|
口口口口 |②---|
①②③④ |③---|
口口口口 |④---|
71
口③②口 |①---|
④口口① |②---|
口口口口 |③---|
口口口口 |④---|
72
口②②口 |①---|
口口口口 |----|
口①①口 |②---|
口口口口 |----|
73
口口口口 |①---|
④③②① |②---|
口口口口 |③---|
口口口口 |④---|
74
口口口口 |①---|
口③③口 |②---|
①②口口 |③---|
口口口口 |----|
75
口口口口 |①---|
②口口② |----|
①口口① |②---|
口口口口 |----|
76
口①①口 |①---|
口口口口 |----|
口②②口 |②---|
口口口口 |----|
77
口③③口 |①---|
①②口口 |②---|
口口口口 |③---|
口口口口 |----|
78
口口口口 |①---|
口口②① |②---|
口③③口 |③---|
口口口口 |----|
79
口③③口 |①---|
①②口口 |②---|
口口口口 |③---|
口口口口 |----|
80
口口口口 |①---|
口口②① |②---|
口③③口 |③---|
口口口口 |----|
81
口③③口 |①---|
①②口口 |②---|
口口口口 |③---|
口口口口 |----|
82
口口口口 |①---|
口口②① |②---|
口③③口 |③---|
口口口口 |----|
83
口口口口 |①---|
①口口① |----|
口口口口 |②---|
②口口② |----|
84
口口口口 |①---|
口①①口 |----|
口口口口 |②---|
口②②口 |----|
85
口口口口 |①---|
①口口① |----|
①口口① |----|
口口口口 |----|


不確定度: 0

最終更新:2013年03月27日 20:50