ビューティフル レシート
Lucky Vacuum

ADVANCED

Level: 7
BPM: 196
Notes: 435

1
口口口口 |----|
口口口口 |----|
口口口口 |----|
口口口口 |----|
2
口①口口 |①---|
口口②口 |----|
口口口口 |②---|
口口口口 |----|
3
口口口口 |①---|
口口口口 |----|
口①口口 |②---|
口口②口 |----|
4
口口①口 |①---|
口②口口 |----|
口口口口 |②---|
口口口口 |----|
5
口口口口 |①---|
口口口口 |----|
口口①口 |②---|
口②口口 |----|
6
口①口口 |①---|
口口②口 |----|
口口口口 |②---|
口口口口 |----|
7
口口口口 |①---|
口口口口 |----|
口①口口 |②---|
口口②口 |----|
8
口口口口 |①---|
口口口口 |----|
①口口① |----|
口口口口 |----|
9
口①①口 |①---|
口②②口 |----|
口口口口 |②---|
口口口口 |----|
10
①④⑤① |①-②-|
口口口口 |--③-|
口②③口 |--④-|
口口口口 |--⑤-|
11
③口口④ |--①-|
口口口口 |--②-|
口口口口 |--③-|
口①②口 |--④-|
12
口口口口 |--①-|
④口口口 |--②-|
口①②口 |--③-|
口③口口 |--④-|
13
口口口口 |--①-|
口①②口 |--②-|
口口口口 |--③-|
口③④口 |--④-|
14
口③④口 |--①-|
口口口口 |--②-|
口①②口 |--③-|
口口口口 |--④-|
15
③口口④ |--①-|
口口口口 |--②-|
口口口口 |--③-|
口①②口 |--④-|
16
口口口口 |--①-|
口口口口 |--②-|
①②③④ |--③-|
口口口口 |--④-|
17
口口口口 |--①-|
①②③④ |--②-|
口口口口 |--③-|
口口口口 |--④-|
18
口①①口 |①---|
口口口口 |----|
口①①口 |----|
②口口② |②---|
19
⑥①口口 |①---|
⑤④③口 |②---|
口口口口 |③-④-|
口②口口 |⑤-⑥-|
20
口口口① |--①-|
口口口② |②-③-|
口④③口 |④---|
口⑥⑤口 |⑤-⑥-|
21
⑥②①⑤ |①-②-|
⑧④③⑦ |③-④-|
口口口口 |⑤-⑥-|
口口口口 |⑦-⑧-|
22
③口口③ |--①-|
⑤②②口 |--②-|
④口口口 |③---|
口①①口 |④-⑤-|
23
⑥①口口 |①---|
⑤④③口 |②---|
口口口口 |③-④-|
口②口口 |⑤-⑥-|
24
口⑤④① |--①-|
口⑥③② |②-③-|
口⑦口口 |④-⑤-|
口口口口 |⑥-⑦-|
25
口口口口 |①---|
口④口② |----|
口口③口 |--②-|
①口口① |③-④-|
26
①①②② |①--②|
口⑤口口 |--③-|
③口⑤④ |④---|
口③④口 |⑤---|
27
⑥①口口 |①---|
⑤④③口 |②---|
口口口口 |③-④-|
口②口口 |⑤-⑥-|
28
口口口① |--①-|
口口口② |②-③-|
口④③口 |④---|
口⑥⑤口 |⑤-⑥-|
29
⑥②①⑤ |①-②-|
⑧④③⑦ |③-④-|
口口口口 |⑤-⑥-|
口口口口 |⑦-⑧-|
30
③口口③ |--①-|
⑤②②口 |--②-|
④口口口 |③---|
口①①口 |④-⑤-|
31
⑥①口口 |①---|
⑤④③口 |②---|
口口口口 |③-④-|
口②口口 |⑤-⑥-|
32
口⑤④① |--①-|
口⑥③② |②-③-|
口⑦口口 |④-⑤-|
口口口口 |⑥-⑦-|
33
口口口口 |①---|
口④口② |----|
口口③口 |--②-|
①口口① |③-④-|
34
①①②② |①--②|
口口口口 |--③-|
③⑤⑤④ |④---|
口③④口 |⑤---|
35
①②③口 |①---|
①②③口 |②---|
口口口④ |③---|
口口口口 |④---|
36
口口口口 |①---|
①口口口 |②---|
口口口④ |③---|
③口口② |④---|
37
④③②① |①---|
口③②① |②---|
口口口口 |③---|
口口口口 |④---|
38
口口口① |①---|
口口口口 |②---|
②口口③ |③---|
④口口口 |④---|
39
①②③口 |①---|
①②③口 |②---|
口口口④ |③---|
口口口口 |④---|
40
口口口口 |①---|
①口口④ |②---|
③口口口 |③---|
口口口② |④---|
41
口①①口 |①---|
口口口口 |----|
口②②口 |②---|
口口口口 |----|
42
①口口② |①--②|
①口口② |--③-|
③③④④ |④---|
口口口口 |----|
43
口①①口 |①---|
口①①口 |----|
口口口口 |----|
口口口口 |----|
44
口口口口 |----|
口口口口 |----|
口口口口 |----|
口口口口 |----|
45
口口①口 |①---|
口②口口 |----|
口口口口 |②---|
口口口口 |----|
46
口口口口 |①---|
口口口口 |----|
口口①口 |②---|
口②口口 |----|
47
口①口口 |①---|
口口②口 |----|
口口口口 |②---|
口口口口 |----|
48
口口口口 |①---|
口口口口 |----|
口①口口 |②---|
口口②口 |----|
49
口口口口 |①---|
口①①口 |----|
口口口口 |----|
口口口口 |----|
50
口口口口 |①---|
口口③④ |②---|
①②口口 |③---|
口口口口 |④---|
51
②口口① |①---|
口口口口 |----|
口口口口 |----|
口口口口 |②---|
52
口②口口 |①---|
①③④口 |②---|
口口口口 |③---|
口口口口 |④---|
53
口口①口 |①---|
口口口口 |----|
口口②口 |②---|
口口口口 |----|
54
口口口口 |①---|
口口口④ |②---|
①口③口 |③---|
口②口口 |④---|
55
②口口① |①---|
口口口口 |----|
口口口口 |----|
口口口口 |②---|
56
口②④口 |①---|
①③口口 |②---|
口口口口 |③---|
口口口口 |④---|
57
④口口① |①---|
口③②口 |②---|
口口口口 |③---|
口口口口 |④---|
58
口①④口 |①---|
口③②口 |②---|
口口口口 |③---|
口口口口 |④---|
59
口口口口 |①---|
③④⑤口 |②---|
①口口② |③-④-|
口口口口 |⑤---|
60
口口口口 |①-②-|
⑤⑥⑦⑧ |③-④-|
口③④口 |⑤-⑥-|
口①②口 |⑦-⑧-|
61
口口①⑥ |①---|
口③④⑤ |②---|
口口口口 |③-④-|
口口②口 |⑤-⑥-|
62
①口口口 |--①-|
②口口口 |②-③-|
口③④口 |④---|
口⑤⑥口 |⑤-⑥-|
63
⑤①②⑥ |①-②-|
⑦③④⑧ |③-④-|
口口口口 |⑤-⑥-|
口口口口 |⑦-⑧-|
64
③口口③ |--①-|
口②②⑤ |--②-|
口口口④ |③---|
口①①口 |④-⑤-|
65
口口①⑥ |①---|
口③④⑤ |②---|
口口口口 |③-④-|
口口②口 |⑤-⑥-|
66
①④⑤口 |--①-|
②③⑥口 |②-③-|
口口⑦口 |④-⑤-|
口口口口 |⑥-⑦-|
67
口口口口 |①---|
②口口④ |----|
口③口口 |--②-|
①口口① |③-④-|
68
②②①① |①--②|
口口⑤口 |--③-|
④⑤口③ |④---|
口④③口 |⑤---|
69
口口①⑥ |①---|
口③④⑤ |②---|
口口口口 |③-④-|
口口②口 |⑤-⑥-|
70
①口口口 |--①-|
②口口口 |②-③-|
口③④口 |④---|
口⑤⑥口 |⑤-⑥-|
71
⑤①②⑥ |①-②-|
⑦③④⑧ |③-④-|
口口口口 |⑤-⑥-|
口口口口 |⑦-⑧-|
72
③口口③ |--①-|
口②②⑤ |--②-|
口口口④ |③---|
口①①口 |④-⑤-|
73
口口①⑥ |①---|
口③④⑤ |②---|
口口口口 |③-④-|
口口②口 |⑤-⑥-|
74
①④⑤口 |--①-|
②③⑥口 |②-③-|
口口⑦口 |④-⑤-|
口口口口 |⑥-⑦-|
75
口口口口 |①---|
②口④口 |----|
口③口口 |--②-|
①口口① |③-④-|
76
②②①① |①--②|
口口口口 |--③-|
④⑤⑤③ |④---|
口④③口 |⑤---|
77
口③②① |①---|
口③②① |②---|
④口口口 |③---|
口口口口 |④---|
78
口口口口 |①---|
口口口① |②---|
④口口口 |③---|
②口口③ |④---|
79
①②③④ |①---|
①②③口 |②---|
口口口口 |③---|
口口口口 |④---|
80
①口口口 |①---|
口口口口 |②---|
③口口② |③---|
口口口④ |④---|
81
口③②① |①---|
口③②① |②---|
④口口口 |③---|
口口口口 |④---|
82
口口口口 |①---|
④口口① |②---|
口口口③ |③---|
②口口口 |④---|
83
口①①口 |①---|
口口口口 |----|
口②②口 |②---|
口口口口 |----|
84
②⑤⑤① |①--②|
②口口① |--③-|
④④③③ |④---|
口口口口 |⑤---|
85
口口口口 |①---|
口①①口 |----|
口口口口 |----|
口①①口 |----|


不確定度: 0

最終更新:2013年03月27日 20:49