ビューティフル レシート
Lucky Vacuum

EXTREME

Level: 9
BPM: 196
Notes: 778

1
口口口口 |----|
口口口口 |----|
口口口口 |----|
口口口口 |----|
2
①①口口 |①---|
口口口口 |----|
口口口口 |②---|
②②口口 |----|
3
口口①① |①---|
口口口口 |----|
口口口口 |②---|
口口②② |----|
4
①①口口 |①---|
口口口口 |----|
口口口口 |②---|
②②口口 |----|
5
①①口口 |①---|
口③口口 |----|
口②口口 |----|
口口口口 |②-③-|
6
⑦口①⑥ |①---|
③口④⑤ |②---|
口口②口 |③-④⑤|
口口口口 |⑥-⑦-|
7
口④⑤口 |--①-|
口③⑥⑦ |②-③-|
①②口口 |④-⑤-|
口口口口 |⑥-⑦-|
8
口口口口 |①---|
②口④口 |----|
口③①口 |--②-|
口口①口 |③-④-|
9
②口①口 |①--②|
口②口① |--③-|
④口③口 |④---|
口④口③ |----|
10
口①②口 |①-②-|
③口口④ |③-④-|
口⑤⑥口 |⑤-⑥-|
⑦口口⑧ |⑦-⑧-|
11
①口口② |①-②-|
口③④口 |③-④-|
⑤口口⑥ |⑤-⑥-|
口⑦⑧口 |⑦-⑧-|
12
口①②口 |①-②-|
③口口④ |③-④-|
口⑤⑥口 |⑤-⑥-|
⑦口口⑧ |⑦-⑧-|
13
①口口② |①-②-|
口③④口 |③-④-|
⑤口口⑥ |⑤-⑥-|
口⑦⑧口 |⑦-⑧-|
14
①口②口 |①-②-|
口③口④ |③-④-|
⑤口⑥口 |⑤-⑥-|
口⑦口⑧ |⑦-⑧-|
15
口②口① |①-②-|
④口③口 |③-④-|
口⑥口⑤ |⑤-⑥-|
⑧口⑦口 |⑦-⑧-|
16
①口②口 |①-②-|
口③口④ |③-④-|
⑤口⑥口 |⑤-⑥-|
口⑦口⑧ |⑦-⑧-|
17
口②口① |①-②-|
④口③口 |③-④-|
口⑥口⑤ |⑤-⑥-|
⑧口⑦口 |⑦-⑧-|
18
①口口③ |①-②-|
④⑤⑦② |③-④-|
口⑦⑥口 |⑤-⑥-|
口口⑦口 |⑦---|
19
①③②② |①---|
⑦口口① |②---|
①口④⑥ |③-④⑤|
②②⑤① |⑥-⑦-|
20
口口①③ |--①-|
口⑥①③ |②-③-|
④②⑤口 |④---|
④②口口 |⑤-⑥-|
21
①②③④ |①-②-|
⑤⑦⑥⑤ |③-④-|
⑧⑥⑦⑧ |⑤-⑥-|
④③②① |⑦-⑧-|
22
①①②② |--①-|
口⑤③口 |--②-|
口③④口 |③---|
②②①① |④-⑤-|
23
①③②② |①---|
⑦口口① |②---|
①口④⑥ |③-④⑤|
②②⑤① |⑥-⑦-|
24
口⑤④口 |--①-|
⑦⑥③口 |②-③-|
口②口口 |④-⑤-|
口①口口 |⑥-⑦-|
25
①口⑥① |①②③④|
口口⑦② |⑤---|
⑩⑩⑧③ |⑥⑦⑧⑨|
⑤⑤⑨④ |⑩---|
26
①①③③ |①--②|
③④⑤① |--③-|
口⑤④② |④---|
②②口口 |⑤---|
27
①③②② |①---|
⑦口口① |②---|
①口④⑥ |③-④⑤|
②②⑤① |⑥-⑦-|
28
口口①③ |--①-|
口⑥①③ |②-③-|
④②⑤口 |④---|
④②口口 |⑤-⑥-|
29
①②③④ |①-②-|
⑤⑦⑥⑤ |③-④-|
⑧⑥⑦⑧ |⑤-⑥-|
④③②① |⑦-⑧-|
30
①①②② |--①-|
口⑤③口 |--②-|
口③④口 |③---|
②②①① |④-⑤-|
31
①③②② |①---|
⑦口口① |②---|
①口④⑥ |③-④⑤|
②②⑤① |⑥-⑦-|
32
口⑤④口 |--①-|
⑦⑥③口 |②-③-|
口②口口 |④-⑤-|
口①口口 |⑥-⑦-|
33
①⑥⑥① |①②③④|
口口⑦② |⑤---|
⑩⑩⑧③ |⑥⑦⑧⑨|
⑤⑤⑨④ |⑩---|
34
①③③① |①--②|
①口⑤① |--③-|
口⑤④口 |④---|
②④口② |⑤---|
35
①⑤⑤① |①-②-|
②口口口 |③-④-|
③口口③ |⑤---|
口⑥⑥④ |⑥---|
36
①④④① |①---|
②①④③ |②---|
口③②② |③---|
③口口口 |④---|
37
①⑥⑥① |①-②-|
②口口口 |③-④-|
③口口③ |⑤---|
口⑤⑤④ |⑥---|
38
①口口① |①---|
②①④③ |②---|
口③②② |③---|
③④④口 |④---|
39
①⑤⑤① |①-②-|
②口口口 |③-④-|
③口口③ |⑤---|
口⑥⑥④ |⑥---|
40
①④④① |①---|
②①④③ |②---|
口③②② |③---|
③口口口 |④---|
41
①口⑩⑨ |①②③④|
口②⑧口 |⑤---|
口⑦③口 |⑥⑦⑧⑨|
⑥口⑤④ |⑩---|
42
①①口口 |①--②|
①②口口 |--③-|
④口②③ |④---|
④④③③ |----|
43
①①①① |①---|
口口口口 |----|
口口口口 |②---|
②②口口 |----|
44
口口①① |①---|
口口口口 |----|
口口口口 |②---|
口口②② |----|
45
①①口口 |①---|
口口口口 |----|
口口口口 |②---|
②②口口 |----|
46
①①口口 |①---|
口口口口 |----|
口口口口 |②---|
口口②② |----|
47
①①口口 |①---|
口口口口 |----|
口口口口 |②---|
②②口口 |----|
48
口口①① |①---|
口口口口 |----|
口口口口 |②---|
口口②② |----|
49
①①口口 |①---|
口口口口 |----|
口口口口 |----|
口口口口 |----|
50
④口④口 |①---|
口③口③ |②---|
②口②口 |③---|
口①口① |④---|
51
口①②① |①---|
①口①② |----|
口口口口 |----|
口口口口 |②---|
52
口②口口 |①---|
②口口口 |②---|
口③①口 |③---|
③④④① |④---|
53
口口①口 |①---|
②①②① |----|
口②口口 |②---|
口口口口 |----|
54
口口口口 |①---|
④口④口 |②---|
口③①③ |③---|
②①②① |④---|
55
①②①口 |①---|
②①口① |----|
口口口口 |----|
口口口口 |②---|
56
口④②口 |①---|
④口口② |②---|
口①③口 |③---|
①口口③ |④---|
57
④口口① |①---|
口④①口 |②---|
口②③口 |③---|
②口口③ |④---|
58
④口口① |①---|
口④①口 |②---|
口②③口 |③---|
②口口③ |④---|
59
口口②口 |①---|
口口⑤口 |②---|
③④⑤口 |③-④-|
口①口口 |⑤---|
60
①口口口 |①-②-|
②⑤⑥口 |③-④-|
口⑦口④ |⑤-⑥-|
⑧口口③ |⑦-⑧-|
61
口①②口 |①---|
②口口① |②---|
①口口②
口②①口

③口口③
口口⑦⑦
口④⑤口 |③-④⑤|
口口口⑥ |⑥-⑦-|
62
口①②⑥ |--①-|
①②⑥⑤ |②-③-|
③④⑤口 |④---|
口③④口 |⑤-⑥-|
63
①②②口 |①-②-|
①口口口 |③-④-|
口口口③
口④④③

⑧口口口
口⑤⑦口
⑧⑥⑧口 |⑤-⑥-|
口口口口 |⑦-⑧-|
64
口口口① |--①-|
②口⑤口 |--②-|
口④口① |③---|
②口口③ |④-⑤-|
65
口①②口 |①---|
②口口① |②---|
①口口②
口②①口

③口口③
口口⑦⑦
口④⑤口 |③-④⑤|
口口口⑥ |⑥-⑦-|
66
口口口口 |--①-|
④③⑥口 |②-③-|
②⑤口⑦ |④-⑤-|
①口口口 |⑥-⑦-|
67
①②③④ |①②③④|
口⑩口⑤ |⑤---|
⑩口⑤口 |⑥⑦⑧⑨|
⑨⑧⑦⑥ |⑩---|
68
①①③③ |①--②|
口口⑤口 |--③-|
口④②② |④---|
口口口口 |⑤---|
69
口①②口 |①---|
②口口① |②---|
①口口②
口②①口

③口口③
口口⑦⑦
口④⑤口 |③-④⑤|
口口口⑥ |⑥-⑦-|
70
口①②⑥ |--①-|
①②⑥⑤ |②-③-|
③④⑤口 |④---|
口③④口 |⑤-⑥-|
71
①②②口 |①-②-|
①口口口 |③-④-|
口口口③
口④④③

⑧口口口
口⑤⑦口
⑧⑥⑧口 |⑤-⑥-|
口口口口 |⑦-⑧-|
72
口口口① |--①-|
②口⑤口 |--②-|
口④口① |③---|
②口口③ |④-⑤-|
73
口①②口 |①---|
②口口① |②---|
①口口②
口②①口

③口口③
口口⑦⑦
口④⑤口 |③-④⑤|
口口口⑥ |⑥-⑦-|
74
口口口口 |--①-|
④③⑥口 |②-③-|
②⑤口⑦ |④-⑤-|
①口口口 |⑥-⑦-|
75
①②③④ |①②③④|
口⑩口⑤ |⑤---|
⑩口⑤口 |⑥⑦⑧⑨|
⑨⑧⑦⑥ |⑩---|
76
①口③口 |①--②|
口口口⑤ |--③-|
口④②口 |④---|
口口口口 |⑤---|
77
①⑤⑤① |①-②-|
②口口口 |③-④-|
③口口③ |⑤---|
口⑥⑥④ |⑥---|
78
①④④① |①---|
②①④③ |②---|
口③②② |③---|
③口口口 |④---|
79
①⑥⑥① |①-②-|
②口口口 |③-④-|
③口口③ |⑤---|
口⑤⑤④ |⑥---|
80
①口口① |①---|
②①④③ |②---|
口③②② |③---|
③④④口 |④---|
81
①⑤⑤① |①-②-|
②口口口 |③-④-|
③口口③ |⑤---|
口⑥⑥④ |⑥---|
82
①④④① |①---|
②①④③ |②---|
口③②② |③---|
③口口口 |④---|
83
①口⑩⑨ |①②③④|
口②⑧口 |⑤---|
口⑦③口 |⑥⑦⑧⑨|
⑥口⑤④ |⑩---|
84
①①口口 |①--②|
①②⑤口 |--③-|
④⑤②③ |④---|
④④③③ |⑤---|
85
①①①① |①---|
①口口① |----|
口口口口 |----|
口口口口 |----|


不確定度: 0

最終更新:2013年03月27日 20:49