Silence
猫叉Master

BASIC

Level: 4
BPM: 175
Notes: 162

1
口口口口 |----|
口口口口 |----|
口口口口 |----|
口口口口
2
口口口口 |①---|
口①口口 |----|
口口口口 |----|
口口口口
3
口口口口 |①---|
口口①口 |----|
口口口口 |----|
口口口口
4
口口口口 |①---|
口口口口 |----|
口口①口 |----|
口口口口
5
口口口口 |①---|
口口口口 |----|
口①口口 |----|
口口口口
6
口口口口 |①---|
口①口口 |----|
口口口口 |----|
口口口口
7
口口口口 |①---|
口口①口 |----|
口口口口 |----|
口口口口
8
口口口口 |①---|
口口口口 |----|
口口①口 |----|
口口口口
9
口口口口 |①---|
口口口口 |----|
口①口口 |----|
口口口口
10
①②口口 |①---|
口口口口 |--②-|
口口口口 |----|
口口口口
11
口口①口 |①---|
口②口口 |----|
口口口口 |②---|
口口口口
12
口口口口 |①---|
口口口口 |--②-|
口口口口 |----|
口口②①
13
口口口口 |①---|
口口口口 |----|
口口②口 |②---|
口①口口
14
①②口口 |①---|
口口口口 |--②-|
口口口口 |----|
口口口口
15
口口①口 |①---|
口②口口 |----|
口口口口 |②---|
口口口口
16
口口口口 |①---|
口口口口 |--②-|
口口口口 |----|
口口②①
17
口口口口 |①---|
口口口口 |----|
口口②口 |②---|
口①口口
18
①口口口 |①---|
②口口口 |--②-|
口口口口 |----|
口口口口
19
口口口① |①---|
口口口② |--②-|
口口口口 |----|
口口口口
20
口口口口 |①---|
口①口口 |--②-|
口②口口 |----|
口口口口
21
口口口口 |①---|
口口①口 |--②-|
口口②口 |----|
口口口口
22
口口口口 |①---|
口口口口 |----|
口口口口 |----|
口口①口
23
口口口口 |①---|
口口口口 |----|
口①口口 |----|
口口口口
24
口口口口 |①---|
口口口口 |----|
口口口口 |----|
口①口口
25
口口口口 |①---|
口口口口 |----|
口口①口 |----|
口口口口
26
口口口① |①---|
口口口② |--②-|
口口口口 |----|
口口口口
27
①口口口 |①---|
②口口口 |--②-|
口口口口 |----|
口口口口
28
口口①口 |①---|
口口②口 |②---|
口口③口 |③---|
口口口口
29
口①口口 |①---|
口②口口 |②---|
口③口口 |③---|
口口口口
30
口口口口 |①---|
口口口口 |----|
口口口口 |----|
口①口口
31
口口口口 |①---|
口口口口 |----|
口口①口 |----|
口口口口
32
口口口口 |①---|
口口口口 |----|
口口口口 |----|
口口①口
33
口口口口 |①---|
口口口口 |----|
口①口口 |----|
口口口口
34
①口②口 |①---|
口口口口 |②---|
口口③口 |③---|
口口口口
35
口②口① |①---|
口③口口 |②-③-|
口④口口 |④---|
口口口口
36
①口②口 |①---|
口口③口 |②-③-|
口口④口 |④---|
口口口口
37
口②口① |①---|
口③口口 |②-③-|
口④口口 |④---|
口口口口
38
口口口口 |①---|
口口口口 |----|
口口口口 |----|
口口①口
39
口口口口 |①---|
口口口口 |----|
口①口口 |----|
口口口口
40
口口口口 |①---|
口口口口 |----|
口口口口 |----|
口①口口
41
口口口口 |①---|
口口口口 |----|
口口①口 |----|
口口口口
42
口口口① |①---|
②③④口 |②-③-|
口口口口 |④---|
口口口口
43
口口口口 |①---|
口口口口 |②-③-|
①口口口 |④---|
口④③②
44
①口口口 |①---|
口④③② |②-③-|
口口口口 |④---|
口口口口
45
口口口口 |①---|
口口口口 |②-③-|
口口口① |④---|
②③④口
46
口口口口 |①---|
口口口口 |----|
口①口口 |----|
口口口口
47
口口口口 |①---|
口口①口 |----|
口口口口 |----|
口口口口
48
口口口口 |①---|
口口口口 |----|
口口①口 |----|
口口口口
49
口口口口 |①---|
口①口口 |----|
口口口口 |----|
口口口口
50
口口口口 |----|
①口口口 |①---|
②口口口 |②---|
口口口口
51
口口口口 |----|
口口口① |①---|
口口口② |②---|
口口口口
52
口①口口 |----|
口②口口 |①---|
口口口口 |②---|
口口口口
53
口口口口 |----|
口口口口 |①---|
口口①口 |②---|
口口②口
54
口口口① |----|
口口口② |①---|
口口口口 |②---|
口口口口
55
①口口口 |----|
②口口口 |①---|
口口口口 |②---|
口口口口
56
口口①口 |----|
口口②口 |①---|
口口口口 |②---|
口口口口
57
口口口口 |----|
口口口口 |①---|
口①口口 |②---|
口②口口
58
口①口口 |----|
口②口口 |①---|
口口口口 |②---|
口口口口
59
口口②口 |①---|
口口③口 |②---|
口①口口 |③---|
口口口口
60
口口口口 |①---|
口口口口 |----|
②口①口 |②---|
口口口口
61
口口口口 |①---|
口口口口 |----|
口口口口 |----|
①口口口
62
口口口口 |①---|
口口口口 |----|
口口口口 |----|
口①①口
63
口口口口 |①---|
口口口口 |----|
口①①口 |----|
口口口口
64
口口口口 |①---|
口①①口 |----|
口口口口 |----|
口口口口
65
口①①口 |①---|
口口口口 |----|
口口口口 |----|
口口口口
66
口口口口 |①---|
口口口口 |----|
口口口口 |----|
口①①口
67
口口口口 |----|
口口口口 |----|
口口口口 |----|
口口口口
68
口口口① |①---|
口口口口 |----|
口口口口 |----|
口口口口
69
①口口口 |①---|
口口口口 |----|
口口口口 |----|
口口口口
70
口口口口 |①---|
口口口口 |----|
口口口口 |----|
①口口口
71
口口口口 |①---|
口口口口 |----|
口口口口 |----|
口口口①
72
口口口口 |①---|
口口①口 |----|
口口口口 |----|
口口口口
73
口口口口 |①---|
口①口口 |----|
口②口口 |②---|
口口口口
74
口口口口 |①---|
口口口口 |----|
口口①口 |----|
口口口口
75
口口口口 |①---|
口口口口 |----|
口口口口 |----|
口①①口
76
①口口口 |①---|
口口口口 |----|
口口口口 |----|
口口口口
77
口口口① |①---|
口口口口 |----|
口口口口 |----|
口口口口
78
口口口口 |①---|
口口口口 |----|
口口口口 |----|
口口口①
79
口口口口 |①---|
口口口口 |----|
口口口口 |----|
①口口口
80
口口口口 |①---|
口①口口 |----|
口口口口 |----|
口口口口
81
口口口口 |①---|
口口①口 |----|
口口口口 |----|
口口口口
82
口口口口 |①---|
口口口口 |----|
口口①口 |----|
口口口口
83
口口口口 |①---|
②口口口 |----|
口①口口 |②---|
口口口口
84
①口口口 |①---|
口口口口 |----|
口口口口 |----|
口口口口
85
口口口① |----|
口口口口 |----|
口口口口 |①---|
口口口口
86
口口口口 |----|
口口①口 |①---|
口口②口 |②---|
口口口口
87
口口口口 |----|
口①口口 |①---|
口②口口 |②---|
口口口口
88
口口口口 |----|
口口口① |①---|
口口口② |②---|
口口口口
89
口口口口 |----|
①口口口 |①---|
②口口口 |②---|
口口口口
90
口口口口 |①---|
口口口口 |----|
口口口口 |②---|
①口口②
91
口③③口 |①---|
口④④口 |②---|
②口口② |③-④-|
口①①口


不確定度: 0

最終更新:2013年03月27日 20:24