Silence
猫叉Master

ADVANCED

Level: 6
BPM: 175
Notes: 340

1
口口口口 |----|
口口口口 |----|
口口口口 |----|
口口口口
2
口①口口 |①---|
口口口口 |----|
口口口口 |----|
口口口口
3
口口口口 |①---|
口口口口 |----|
口口口口 |----|
口口①口
4
口口①口 |①---|
口口口口 |----|
口口口口 |----|
口口口口
5
口口口口 |①---|
口口口口 |----|
口口口口 |----|
口①口口
6
口口口口 |①---|
口①口口 |----|
口口口口 |----|
口口口口
7
口口口口 |①---|
口口口口 |----|
口口①口 |----|
口口口口
8
口口口口 |①---|
口口①口 |----|
口口口口 |----|
口口口口
9
口口口口 |①---|
口口口口 |----|
口①口口 |----|
口口口口
10
①口口口 |①---|
②口口口 |--②-|
口口口口 |----|
口口口口
11
口口口口 |①---|
口口口口 |--②-|
口口口② |----|
口口口①
12
口①口口 |①---|
口②口口 |--②-|
口口口口 |----|
口口口口
13
口口口口 |①---|
口口口口 |--②-|
口口②口 |----|
口口①口
14
口口①口 |①---|
口口②口 |--②-|
口口口口 |----|
口口口口
15
口口口口 |①---|
口口口口 |--②-|
口②口口 |----|
口①口口
16
口口口① |①---|
口口口口 |--②-|
②口口口 |----|
口口口口
17
①口口口 |①---|
口口口② |----|
口口口③ |②-③-|
口口口口
18
口口口口 |①---|
口口口口 |--②-|
②②口口 |----|
口①①口
19
②②口口 |①---|
口口①① |--②-|
口口口口 |----|
口口口口
20
口口①① |①---|
②②口口 |--②-|
口口口口 |----|
口口口口
21
口口口口 |①---|
口口口口 |--②-|
口口①① |----|
②②口口
22
口①①口 |①---|
口口口口 |----|
口口口口 |----|
口口口口
23
口口口口 |①---|
口口口口 |----|
口口口口 |----|
口①①口
24
口口口口 |①---|
口①①口 |----|
口口口口 |----|
口口口口
25
口口口口 |①---|
②口口口 |----|
③①①口 |②-③-|
口口口口
26
口口口口 |①---|
口口口口 |--②-|
口口②② |----|
口①①口
27
口口②② |①---|
①①口口 |--②-|
口口口口 |----|
口口口口
28
①口口口 |①---|
口口口② |②---|
③口口口 |③---|
口口口口
29
口口口口 |①---|
口口口口 |②---|
口口口③ |③---|
②口口①
30
口口口口 |①---|
口①①口 |----|
口口口口 |----|
口口口口
31
口口口口 |①---|
口口口口 |----|
口口口口 |----|
口①①口
32
口口口口 |①---|
口①①口 |----|
口口口口 |----|
口口口口
33
口①①口 |①---|
口口口② |----|
口口口③ |②-③-|
口口口口
34
口②②口 |①-②-|
③口口口 |③---|
口口④口 |④---|
口①①口
35
口口口口 |①-②-|
④口口③ |③---|
①口口口 |④---|
口②②口
36
口②②口 |①-②-|
口口口口 |③---|
③口④① |④---|
口口口口
37
口口口口 |①-②-|
①④口③ |③---|
口口口口 |④---|
口②②口
38
口口口口 |①---|
口口口口 |--②-|
①口口① |----|
口②②口
39
口①①口 |①---|
口口口口 |--②-|
口②②口 |----|
口口口口
40
口②②口 |①---|
口①①口 |--②-|
口口口口 |----|
口口口口
41
口口口口 |①---|
②口口口 |----|
③①①口 |②-③-|
口口口口
42
口口②口 |①---|
口③③口 |②-③-|
口④口口 |④---|
口口①①
43
口②口口 |①---|
③口口③ |②-③-|
口口④口 |④---|
①口口口
44
口口②口 |①---|
口③③口 |②-③-|
口④口口 |④---|
口口口①
45
口②口口 |①---|
③口口③ |②-③-|
口口④口 |④---|
①口口口
46
口口口口 |①---|
口口口口 |----|
口口口口 |----|
口口口①
47
口口口口 |①---|
①口口① |----|
口口口口 |----|
口口口口
48
口口口口 |①---|
口口口口 |----|
①口口① |----|
口口口口
49
①口口① |①---|
口口口口 |----|
口口口口 |----|
口口口口
50
口口①口 |①---|
口②口① |②-③-|
口③口口 |④---|
口④口口
51
口①口口 |①---|
①口②口 |②---|
口口口口 |③---|
口口③口
52
口口②口 |①---|
口口③口 |②-③-|
①口④口 |④---|
口①口口
53
口②口口 |①---|
口口口口 |②---|
口③口① |③---|
口口①口
54
②③④口 |①---|
口①①口 |②-③-|
口口口口 |④---|
口口口口
55
口口口口 |①---|
口口口口 |②---|
口①①口 |③---|
口③口②
56
口④③② |①---|
口①①口 |②-③-|
口口口口 |④---|
口口口口
57
口口口口 |①---|
③口③口 |②---|
口①①口 |③-④-|
②④口④
58
①口①口 |①---|
口②口② |②---|
③口③口 |③---|
口口口口
59
口①口① |①---|
②③②口 |②---|
口口口口 |③---|
口③口口
60
②口口③ |①---|
口口口① |②---|
②口口③ |③---|
口口口①
61
口口口口 |①---|
②口口② |----|
口①①口 |②---|
口口口口
62
口口口口 |①---|
口口口口 |----|
口口口口 |----|
①①①①
63
①①①① |①---|
口口口口 |----|
口口口口 |----|
口口口口
64
口口口口 |①---|
①①①① |----|
口口口口 |----|
口口口口
65
口口口口 |①---|
口口口口 |----|
①①①① |----|
口口口口
66
口口口口 |①---|
口口口口 |----|
口口口口 |----|
①①①①
67
口口口口 |----|
口口口口 |----|
口口口口 |----|
口口口口
68
口①口口 |①---|
①②口口 |②-③-|
口口③口 |④---|
口口口④
69
口口①口 |①---|
口口②① |②-③-|
口③口口 |④---|
④口口口
70
①口口口 |①---|
口①口口 |②-③-|
口口口口 |④---|
口④③②
71
口口口① |①---|
口口①口 |②-③-|
②③④口 |④---|
口口口口
72
②③④口 |①---|
口口口口 |②-③-|
口口口① |④---|
口口①口
73
口口口口 |①---|
口④③② |②-③-|
①口口口 |④---|
口①口口
74
①口口① |①---|
口口口口 |②---|
②③③② |--③-|
口口口口
75
口口口口 |①---|
口口口口 |----|
口口口口 |----|
口①①口
76
口口①口 |①---|
①②口口 |②-③-|
口③口口 |④---|
口④口口
77
口①口口 |①---|
口口②① |②-③-|
口口③口 |④---|
口口④口
78
口口①口 |①---|
口①口② |②-③-|
口口口③ |④---|
口口口④
79
口①口口 |①---|
②口①口 |②---|
口口口口 |③---|
③口口口
80
①口口① |①---|
口②④口 |②-③-|
口③口口 |--④-|
口口口口
81
口口口口 |①---|
②口口口 |②---|
口口①口 |③---|
③口口口
82
口口口口 |①---|
口③③① |②---|
口口口口 |③---|
口口口②
83
口口口口 |①---|
口口口口 |----|
口口口口 |②---|
②①①②
84
口①①口 |①-②-|
②④⑥口 |③-④-|
③⑤口口 |⑤-⑥-|
口口口口
85
④⑤口口 |①-②-|
口口口② |③-④-|
口口①③ |⑤-⑥-|
口口口⑥
86
口口③② |①-②-|
口口口⑥ |③-④-|
口口口口 |⑤-⑥-|
④⑤①口
87
口口口口 |①-②-|
⑥④②口 |③-④-|
口⑤③① |⑤-⑥-|
口口口口
88
⑥口③② |①-②-|
口口口口 |③-④-|
①口口口 |⑤-⑥-|
④⑤口口
89
口①口口 |①-②-|
④⑥口口 |③-④-|
⑤口口口 |⑤-⑥-|
口口③②
90
口口口口 |①---|
口口口口 |----|
口①口口 |----|
口口口口
91
口①①口 |①---|
②口口② |②---|
口③③口 |③-④-|
口④④口


不確定度: 0

最終更新:2013年03月27日 20:23