Silence
猫叉Master

EXTREME

Level: 8
BPM: 175
Notes: 446

1
口口口口 |----|
口口口口 |----|
口口口口 |----|
口口口口
2
①①口口 |①---|
②③口口 |②---|
口口口口 |③---|
口口口口
3
口口口口 |①---|
口口①② |②---|
口口口③ |③---|
口口口口
4
口口口口 |①---|
口口口口 |②---|
②③口口 |③---|
①①口口
5
口口口口 |①---|
口口口③ |②---|
口口①② |③---|
口口口口
6
①①口口 |①---|
②③口口 |②---|
口口口口 |③---|
口口口口
7
口口口口 |①---|
口口①② |②---|
口口口③ |③---|
口口口口
8
口口口口 |①---|
口口口口 |②---|
②③口口 |③---|
①①口口
9
口口口口 |①---|
口口口③ |②---|
口口①② |③---|
口口口口
10
①①③口 |①---|
②④口口 |②-③-|
口口口口 |④---|
口口口口
11
口口口口 |①---|
口口①② |②---|
口口口③ |③---|
口口口口
12
口口口口 |①---|
口口口口 |②-③-|
②④口口 |④---|
①①③口
13
口口口口 |①---|
口口口③ |②---|
口口①② |③---|
口口口口
14
①①③口 |①---|
②④口口 |②-③-|
口口口口 |④---|
口口口口
15
口口口口 |①---|
口口①② |②---|
口口口③ |③---|
口口口口
16
口口口口 |①---|
口口口口 |②-③-|
②④口口 |④---|
①①③口
17
口口④③ |①---|
口口口口 |②---|
口口①② |③-④-|
口口口口
18
②口口口 |①---|
口②口口 |--②-|
口①口口 |----|
①口口口
19
口口口① |①---|
口口①口 |--②-|
口口②口 |----|
口口口②
20
口口口口 |①---|
口口口口 |--②-|
①口口② |----|
口①②口
21
口②①口 |①---|
②口口① |--②-|
口口口口 |----|
口口口口
22
口口口口 |①---|
口①①口 |--②-|
口①①口 |----|
口口口②
23
②口口口 |①---|
口口口口 |--②-|
口口口口 |----|
①口口口
24
口口口口 |①---|
口①①口 |----|
口①①口 |----|
口口口口
25
③④口口 |①---|
口②口口 |--②-|
口口口口 |③-④-|
①口口①
26
口口①口 |①---|
口口口① |--②-|
口口②口 |----|
口口口②
27
①口口② |①---|
口①口口 |--②-|
口口口口 |----|
口口口口
28
口②①口 |①---|
②口口① |②---|
③口口口 |③---|
口③口口
29
③口口② |①---|
口③②口 |②---|
口口口① |③---|
口口①口
30
口口口口 |①---|
口口口口 |----|
口①①口 |----|
①口口①
31
口①①口 |①---|
口口口口 |--②-|
口口口口 |----|
口②②口
32
口口口口 |①---|
口①①口 |----|
口①①口 |----|
口口口口
33
口口③② |①---|
口口口口 |----|
口口口口 |②-③-|
口①①口
34
口①口口 |①---|
口口口口 |②-③-|
口口口口 |④---|
②③④口
35
②③④口 |①---|
口①①口 |②-③-|
口口口口 |④---|
口口口口
36
口口口口 |①---|
口口口口 |②-③-|
口①①口 |④---|
口④③②
37
口④③② |①---|
口①①口 |②-③-|
口口口口 |④---|
口口口口
38
②口口口 |①---|
口口口口 |--②-|
口①①口 |----|
口口口口
39
口口口② |①---|
口①①口 |--②-|
口口口口 |----|
口口口口
40
②口口口 |①---|
口口口口 |--②-|
口①①口 |----|
口口口口
41
口②口口 |①---|
③①①口 |----|
口口口口 |②-③-|
口口口口
42
口口②口 |①---|
口口口③ |②-③-|
口①④口 |④---|
口口口口
43
口①口① |①---|
②口口口 |②-③-|
口③口口 |④---|
④口口口
44
①口①口 |①---|
口口口② |②-③-|
口口③口 |④---|
口口口④
45
②①口① |①---|
口③口口 |②-③-|
④口口口 |④---|
口口口口
46
口口口口 |①---|
②口口② |②---|
口口口口 |③---|
③①①③
47
③口口③ |①---|
④口口④ |②-③-|
②①①② |④---|
口口口口
48
口③③口 |①---|
口①①口 |②---|
口②②口 |③---|
口口口口
49
口口口口 |①---|
②口口② |②---|
③口口③ |③---|
①①①①
50
①口口① |①---|
口②口③ |②-③-|
口口④口 |--④-|
口口口口
51
③④口口 |①---|
口口口口 |②---|
①口口口 |③-④-|
口口②②
52
口口①口 |①---|
③口②口 |②-③-|
口④口口 |--④-|
口口口口
53
口口④③ |①---|
口口口口 |②---|
口口口① |③-④-|
②②口口
54
口①口口 |①---|
口②口③ |②-③-|
口口④口 |--④-|
口口口口
55
③④口口 |①---|
口口口口 |②---|
①口口口 |③-④-|
口口②②
56
口口①口 |①---|
③口②口 |②-③-|
口④口口 |--④-|
口口口口
57
口口④③ |①---|
口口口口 |②---|
口口口① |③-④-|
②②口口
58
口①口口 |①---|
口②口③ |②-③-|
口口④口 |--④-|
口口口口
59
③④口口 |①---|
口口口口 |②---|
①口口口 |③-④-|
口口②②
60
口口①口 |①---|
③口②口 |②-③-|
口④口口 |--④-|
口口口口
61
口口口口 |①---|
口口口口 |②---|
③口③① |③---|
口②口②
62
口①①口 |①---|
①②③① |②---|
口口口口 |③---|
口口口口
63
口口口口 |①---|
口口口口 |②---|
①③②① |③---|
口①①口
64
口①①口 |①---|
①②③① |②---|
口口口口 |③---|
口口口口
65
①口口① |①---|
口口口口 |②③④⑤|
②③④⑤ |⑥⑦⑧⑨|
⑨⑧⑦⑥
66
口①①口 |①---|
①口口① |----|
口口口口 |----|
口口口口
67
口口口口 |----|
口口口口 |----|
口口口口 |----|
口口口口
68
②③④⑤ |①---|
口口口口 |②-③-|
①口口① |④-⑤-|
口口口口
69
口口口口 |①---|
①口口① |②-③-|
口口口口 |④-⑤-|
⑤④③②
70
⑤④③② |①---|
口口口口 |②-③-|
①口口① |④-⑤-|
口口口口
71
口口口口 |①---|
①③③① |②---|
口②②口 |③---|
口口口口
72
②③④⑤ |①---|
口口口口 |②-③-|
①口口① |④-⑤-|
口口口口
73
口口口口 |①---|
①口口① |②-③-|
口口口口 |④-⑤-|
⑤④③②
74
⑤④③② |①---|
口口口口 |②-③-|
①口口① |④-⑤-|
口口口口
75
口口口口 |①-②-|
①⑤⑤① |③-④-|
口③③口 |⑤-⑥-|
④⑥⑥②
76
②③④⑤ |①---|
口口口口 |②-③-|
①口口① |④-⑤-|
口口口口
77
口口口口 |①---|
①口口① |②-③-|
口口口口 |④-⑤-|
⑤④③②
78
⑤④③② |①---|
口口口口 |②-③-|
①口口① |④-⑤-|
口口口口
79
口口口口 |①---|
①③③① |②---|
口②②口 |③---|
口口口口
80
②口口③ |①---|
口口口口 |②-③-|
①口口① |--④-|
口口口④
81
③④口口 |①---|
口口口口 |②---|
口②②口 |③-④-|
①口口口
82
口口①口 |①---|
口口口口 |②-③-|
口口口口 |④-⑤-|
⑤④③②
83
③口口③ |①---|
②口口② |②---|
①口口① |③---|
口口口口
84
口②④口 |①-②-|
口⑥口口 |③-④-|
口⑤口口 |⑤-⑥-|
①口③①
85
⑤口口④ |①-②-|
口口①口 |③-④-|
口口②口 |⑤-⑥-|
③口口⑥
86
口⑥①口 |①-②-|
口口口口 |③-④-|
②口口③ |⑤-⑥-|
④口⑤口
87
⑤口口口 |①-②-|
口②③口 |③-④-|
口①④口 |⑤-⑥-|
口口⑥口
88
⑥口②⑤ |①-②-|
口口口口 |③-④-|
口口口口 |⑤-⑥-|
③①口④
89
口⑥口口 |①-②-|
口②③口 |③-④-|
口①④口 |⑤-⑥-|
口⑤口口
90
④口②⑥ |①-②-|
口口口口 |③-④-|
口口口口 |⑤-⑥-|
⑤口①③
91
口②②口 |①---|
口①①口 |②---|
③③③③ |③-④-|
④④④④


不確定度: 0

最終更新:2013年03月27日 20:21