マダラカルト
トーマ

BASIC

Level: 4
BPM: 170
Notes: 201

1
口口口口 |----|
口口口口 |----|
口口口口 |----|
口口口口 |----|
2
口口口口 |①---|
口①①口 |----|
②③口口 |②---|
口口口口 |③---|
3
口口口口 |①---|
口口口口 |----|
口口①口
口口口口

口口口口
口口口口
口口③② |②---|
口口口口 |③---|
4
口口③口 |①---|
口口口② |----|
口①口口 |②---|
口口口口 |③---|
5
口口口口 |①---|
口①口口 |----|
口④②口 |②-③-|
口⑤③口 |④-⑤-|
6
口口口口 |①---|
口口口口 |②---|
④③②① |③---|
口口口口 |④---|
7
口口口口 |①---|
①②③④ |②---|
口口口口 |③---|
口口口口 |④---|
8
①②口口 |①---|
口口④③ |②---|
口口口口 |③---|
口口口口 |④---|
9
口口口口 |①---|
口口口口 |②---|
口口④③ |③---|
①②口口 |④---|
10
口口口口 |①---|
口口口口 |②---|
①②③④ |③---|
口口口口 |④---|
11
口口口口 |①---|
④③②① |②---|
口口口口 |③---|
口口口口 |④---|
12
口口②① |①---|
③④口口 |②---|
口口口口 |③---|
口口口口 |④---|
13
口口口口 |①---|
口口口口 |②---|
③④口口 |③---|
口口②① |④---|
14
口口口口 |①---|
口口口口 |----|
口口口口 |----|
口①①口 |----|
15
口口口口 |①---|
口①①口 |----|
口口口口 |----|
口口口口 |----|
16
口口口口 |①---|
口口口口 |----|
口口口口 |----|
口①①口 |----|
17
口口口口 |①---|
口①①口 |----|
②口口② |②--③|
③口口③ |----|
18
口口口口 |①---|
①②口口 |----|
口口口口 |②---|
口口口口 |----|
19
口口口口 |①---|
口口②① |----|
口口口口 |②---|
口口口口 |----|
20
口口口口 |①---|
口口口口 |②---|
④口口① |③---|
口③②口 |④---|
21
口口③口 |①---|
口②口口 |②---|
口口①口 |③---|
口口口口 |----|
22
口口口口 |①---|
口口②① |----|
口口口口 |②---|
口口口口 |----|
23
口口口口 |①---|
①②口口 |----|
口口口口 |②---|
口口口口 |----|
24
口口口口 |①---|
口口口口 |②---|
①口口④ |③---|
口②③口 |④---|
25
口口口口 |①---|
①口口④ |②---|
口②③口 |③---|
口口口口 |④---|
26
口①①口 |①---|
口口口口 |----|
口口口口 |----|
口口口口 |----|
27
口口口口 |①---|
口口②① |----|
口口口口 |②---|
口口口口 |----|
28
口口口口 |①---|
①②口口 |----|
口口口口 |②---|
口口口口 |----|
29
口口口口 |①---|
口口口口 |②---|
①口口④ |③---|
口②③口 |④---|
30
口③口口 |①---|
口口②口 |②---|
口①口口 |③---|
口口口口 |----|
31
口口口口 |①---|
①②口口 |----|
口口口口 |②---|
口口口口 |----|
32
口口口口 |①---|
口口②① |----|
口口口口 |②---|
口口口口 |----|
33
口口口口 |①---|
口口口口 |②---|
④口口① |③---|
口③②口 |④---|
34
口口口口 |①---|
④口口① |②---|
口③②口 |③---|
口口口口 |④---|
35
口①①口 |①---|
口口口口 |----|
口口口口
口口口口

口②口口
口口口口
口口口口 |----|
口口口口 |②---|
36
口口口口 |①---|
口口①口 |----|
口口口口 |②---|
口口②口 |----|
37
口口口口 |①---|
口②②口 |----|
口口口口 |②---|
①口口口 |----|
38
口口口口 |①---|
②口口① |----|
口口口口 |②---|
口口口口 |----|
39
口口口口 |①---|
口口口口 |②---|
③口①口 |③---|
口②口口 |----|
40
口口①口 |①---|
口②口口 |②---|
口口口口 |③---|
口③口口 |----|
41
口口口口 |①---|
口②②口 |----|
口口口口 |②---|
口口口① |----|
42
口口口口 |①---|
①口口② |----|
口口口口 |②---|
口口口口 |----|
43
口③③口 |①---|
口口口口 |②---|
口口②口 |③---|
口①口口 |----|
44
口口口口 |①---|
①口口② |----|
口口口口 |②---|
口口口口 |----|
45
口口口口 |①---|
口口口口 |②---|
口口②口 |③---|
③③口① |----|
46
口口口口 |①---|
①口口② |----|
口口口口 |②---|
口口口口 |----|
47
口④口口 |①---|
口口③口 |②---|
口②口口 |③---|
口口①口 |④---|
48
口口口口 |①---|
①口口② |----|
口口口口 |②---|
口口口口 |----|
49
口口口口 |①---|
口口口口 |②---|
口口②口 |③---|
③③口① |----|
50
口口口口 |①---|
①口口② |----|
口口口口 |②---|
口口口口 |----|
51
口口④口 |①---|
口③口口 |②---|
口口②口 |③---|
口①口口 |④---|
52
口口口口 |①---|
②口口① |----|
口口口口 |②---|
口口口口 |----|
53
口口口口 |①---|
口口口口 |②---|
口②口口 |③---|
①口③③ |----|
54
口口口口 |①---|
②口口① |----|
口口口口 |②---|
口口口口 |----|
55
口④口口 |①---|
口口③口 |②---|
口②口口 |③---|
口口①口 |④---|
56
口口口口 |①---|
①口口② |----|
口口口口 |②---|
口口口口 |----|
57
口口口口 |①---|
口口口口 |②---|
口口②口 |③---|
③③口① |----|
58
口口口口 |①---|
①口口② |----|
口口口口 |②---|
口口口口 |----|
59
④④口口 |①---|
口口③口 |②---|
口②口口 |③---|
口口①口 |④---|
60
口口口口 |①---|
口口口① |----|
口口口口 |----|
口口口口 |----|
61
口口口口 |①---|
口口①口 |----|
口口口口 |----|
口口口口 |----|
62
口口口口 |①---|
①口口口 |----|
口口口口 |----|
口口口口 |----|
63
口口口口 |①---|
口①口口 |----|
口口口口 |----|
口口口口 |----|
64
①②④③ |①---|
口口口口 |②---|
口口口口 |③---|
口口口口 |④---|
65
口口口口 |①---|
①②④③ |②---|
口口口口 |③---|
口口口口 |④---|
66
口口口口 |①---|
口口口口 |②---|
①②④③ |③---|
口口口口 |④---|
67
口口口口 |①---|
口口口口 |②---|
口口口口 |③---|
①②④③ |④---|


不確定度: 0

最終更新:2013年03月27日 20:18