マダラカルト
トーマ

ADVANCED

Level: 8
BPM: 170
Notes: 541

1
口口口口 |----|
口口口口 |----|
口口口口 |----|
口口口口 |----|
2
口口口① |①---|
口②口口 |--②③|
口口③⑤ |④---|
口④口口 |⑤---|
3
①口口口 |①---|
口口②口 |--②③|
⑤③口口 |④---|
口口④口 |⑤---|
4
口口口① |①---|
口②⑥口 |--②③|
口口③⑤ |④---|
口④口口 |⑤-⑥-|
5
②①口② |①---|
③口口③ |----|
④口口④ |②-③-|
⑤口口⑤ |④-⑤-|
6
口②口④ |①-②③|
⑦口③⑥ |④-⑤-|
⑨⑤口⑧ |⑥-⑦-|
口①口口 |⑧-⑨-|
7
④口②口 |①-②③|
⑥③口⑦ |④-⑤-|
⑧口⑤⑨ |⑥-⑦-|
口口①口 |⑧-⑨-|
8
④③②① |①②③④|
⑤口口口 |⑤-⑥-|
口口⑥口
口口口口

口⑪口口
口口⑨口
口⑩口⑧ |⑦-⑧⑨|
口⑦口口 |⑩-⑪-|
9
口⑪口① |①-②③|
口⑤⑥⑦ |④-⑤⑥|
⑩⑨⑧口 |⑦-⑧⑨|
口④③② |⑩-⑪-|
10
④口②口 |①-②③|
⑥③口⑦ |④-⑤-|
⑧口⑤⑨ |⑥-⑦-|
口口①口 |⑧-⑨-|
11
口②口④ |①-②③|
⑦口③⑥ |④-⑤-|
⑨⑤口⑧ |⑥-⑦-|
口①口口 |⑧-⑨-|
12
①②③④ |①②③④|
口口口⑤ |⑤-⑥-|
口⑥口口
口口口口

口口⑪口
口⑨口口
⑧口⑩口 |⑦-⑧⑨|
口口⑦口 |⑩-⑪-|
13
①口⑪口 |①-②③|
⑦⑥⑤口 |④-⑤⑥|
口⑧⑨⑩ |⑦-⑧⑨|
②③④口 |⑩-⑪-|
14
口②⑥口 |①-②-|
口⑦③口 |③-④-|
口④⑧口 |⑤-⑥-|
①口⑤① |⑦-⑧-|
15
口②⑥口 |①-②-|
口⑦③口 |③-④-|
口④⑧口 |⑤-⑥-|
①口⑤① |⑦-⑧-|
16
口②⑥口 |①-②-|
口⑦③口 |③-④-|
口④⑧口 |⑤-⑥-|
①口⑤① |⑦-⑧-|
17
口⑤⑤口 |①-②-|
②口口③ |③-④-|
口④口口 |⑤--⑥|
①⑥⑥① |----|
18
口口口口 |①--②|
①口②③ |③-④-|
④口口⑤ |--⑤-|
口⑥口口 |--⑥-|
19
口口口⑥ |①--②|
③②口① |③-④-|
⑤口口④ |--⑤-|
⑥口口口 |--⑥-|
20
②口口口 |①-②-|
④①③口 |③-④-|
口③①④
口口口②

口口⑥⑦
口口口⑤
⑤口⑧口 |⑤--⑥|
口口口口 |⑦-⑧-|
21
口口口口 |①---|
口①口口 |②---|
口口口口 |③---|
②口③③ |----|
22
口口口口 |①--②|
③②口① |③-④-|
⑤口口④ |--⑤-|
口口⑥口 |--⑥-|
23
⑥口口口 |①--②|
①口②③ |③-④-|
④口口⑤ |--⑤-|
口口口⑥ |--⑥-|
24
口口口② |①-②-|
口③①④ |③-④-|
④①③口
②口口口

⑦⑥口口
⑤口口口
口⑧口⑤ |⑤--⑥|
口口口口 |⑦-⑧-|
25
口④④口 |①---|
⑤口①③ |②---|
③口口⑤ |③-④-|
口口口② |⑤---|
26
②口口③ |①-②-|
口口口口 |--③-|
口④⑤口 |--④-|
口①①口 |--⑤-|
27
口口口口 |①--②|
①口②③ |③-④-|
④口口⑤ |--⑤-|
口⑥口口 |--⑥-|
28
口口口⑥ |①--②|
③②口① |③-④-|
⑤口口④ |--⑤-|
⑥口口口 |--⑥-|
29
②口口口 |①-②-|
④①③口 |③-④-|
口③①④
口口口②

口口⑥⑦
口口口⑤
⑤口⑧口 |⑤--⑥|
口口口口 |⑦-⑧-|
30
口口口口 |①---|
口①口口 |②---|
口口口口 |③---|
②口③③ |----|
31
口口口口 |①--②|
③②口① |③-④-|
⑤口口④ |--⑤-|
口口⑥口 |--⑥-|
32
⑥口口口 |①--②|
①口②③ |③-④-|
④口口⑤ |--⑤-|
口口口⑥ |--⑥-|
33
口口口② |①-②-|
口③①④ |③-④-|
④①③口
②口口口

⑦⑥口口
⑤口口口
口⑧口⑤ |⑤--⑥|
口口口口 |⑦-⑧-|
34
口口口口 |①---|
④口①③ |②---|
③口口④ |③---|
口口口② |④---|
35
②口口口 |①---|
口口口口 |----|
口口口口 |----|
口①①口 |②---|
36
口口⑤口 |①---|
口④口① |②-③-|
口口③口 |④-⑤-|
②⑥口口 |--⑥-|
37
口①口③ |①-②-|
④口口口 |③-④-|
口⑤⑤口 |⑤---|
⑥口口② |⑥---|
38
口口口口 |①---|
口②③口 |②-③-|
口口口①
口口口口

口口口④
口口口口
口口口⑤ |--④-|
口口口口 |--⑤-|
39
口⑤口⑥ |①--②|
口口④口 |③-④-|
①口口口 |⑤---|
口②③口 |⑥---|
40
口④口口 |①---|
①口口口 |②-③-|
口③口口 |--④-|
口口⑤② |--⑤-|
41
③口①口 |①-②-|
口口口④ |③-④-|
口⑤⑤口 |⑤---|
②口口⑥ |⑥---|
42
口口口口 |①---|
口③②口 |②-③-|
①口口口
口口口口

④口口口
口口口口
⑤口口口 |--④-|
口口口口 |--⑤-|
43
口口⑤⑤ |①--②|
口④口口 |③-④-|
口口口① |⑤---|
口③②口 |----|
44
口①口口 |①--②|
口⑥④口 |③-④-|
口③②口 |--⑤-|
口口⑤口 |⑥---|
45
口⑥⑥口 |①-②③|
⑦口⑧⑤ |④-⑤-|
②③④① |⑥---|
口口口口 |⑦-⑧-|
46
口口⑦口 |①--②|
口⑥口口 |③-④-|
口②③口 |⑤--⑥|
口⑤①④ |--⑦-|
47
③口口③ |--①-|
②④④② |②-③-|
①⑤⑤① |--④-|
口⑥⑥口 |⑤-⑥-|
48
口③②口 |①--②|
口口⑥④ |③-④-|
①口口口 |--⑤-|
口⑤口口 |⑥---|
49
口⑥⑥口 |①-②③|
⑤⑧口⑦ |④-⑤-|
①④③② |⑥---|
口口口口 |⑦-⑧-|
50
⑦口口⑦ |①--②|
口口口口 |③-④-|
⑥③②口 |⑤--⑥|
④①⑤口 |--⑦-|
51
口口口口 |--①-|
口②②口 |②-③-|
口①①口
口③③口

口⑤⑤口
⑥口口⑥
④⑦⑦④ |④-⑤-|
口口口口 |⑥-⑦-|
52
①口口口 |①--②|
口③②口 |③-④-|
口口⑥口 |--⑤-|
⑤口口④ |⑥---|
53
口口⑦① |①-②③|
②③④⑧ |④-⑤-|
口⑤口口 |⑥---|
⑥口口⑥ |⑦-⑧-|
54
口口口口 |①--②|
②③⑥口 |③-④-|
⑦口①口 |⑤--⑥|
口⑤口④ |--⑦-|
55
③口口③ |--①-|
②④④② |②-③-|
⑤①口⑤ |--④-|
⑥口口⑥ |⑤-⑥-|
56
口口口口 |①--②|
①口口④ |③-④-|
口⑥口口 |--⑤-|
口③②⑤ |⑥---|
57
①⑦口口 |①-②③|
⑧④③② |④-⑤-|
⑤口口口 |⑥---|
口⑥⑥口 |⑦-⑧-|
58
口口口口 |①--②|
⑥口③② |③-④-|
口①口⑦ |⑤--⑥|
④口口⑤ |--⑦-|
59
⑥口口⑥ |--①-|
⑤③③⑤ |②-③-|
④②②④ |--④-|
口①①口 |⑤-⑥-|
60
口⑦⑨口 |①-②③|
口⑧⑥口 |④-⑤-|
⑤③口口 |⑥-⑦-|
②①④口 |⑧-⑨-|
61
口⑨⑦口 |①-②③|
口⑥⑧口 |④-⑤-|
口口③⑤ |⑥-⑦-|
口④①② |⑧-⑨-|
62
口⑨口口 |①②③④|
⑧⑦⑩口 |⑤-⑥-|
①②③④ |⑦-⑧⑨|
口⑥⑪⑤ |⑩-⑪-|
63
⑤口口口 |①-②③|
口⑥口口 |④-⑤⑥|
②口④①
口③口口

口口⑦口
口口口口
口⑨口⑪ |⑦-⑧⑨|
⑩口⑧口 |⑩-⑪-|
64
口③口⑤ |①-②③|
④口②口 |④-⑤-|
①⑥⑧口 |⑥-⑦-|
口⑨⑦口 |⑧-⑨-|
65
⑤口③口 |①-②③|
口②口④ |④-⑤-|
口⑧⑥① |⑥-⑦-|
口⑦⑨口 |⑧-⑨-|
66
口口口口 |①②③④|
④③②① |⑤-⑥-|
⑤口口口
口口口⑥

口口口口
口口口⑪
口⑨⑦口 |⑦-⑧⑨|
⑧口⑩口 |⑩-⑪-|
67
⑦①⑤口 |①-②③|
口⑥口⑪ |④-⑤⑥|
②⑨④口 |⑦-⑧⑨|
⑧③⑩口 |⑩-⑪-|


不確定度: 0

最終更新:2013年03月27日 20:18