マダラカルト
トーマ

EXTREME

Level: 10
BPM: 170
Notes: 740

1
口口口口 |----|
口口口口 |----|
口口口口 |----|
口口口口 |----|
2
口口口口 |①---|
口①①口 |--②③|
②③④口 |④---|
口口口⑤ |⑤---|
3
口口口口 |①---|
口①口口 |--②③|
口④③② |④---|
⑤口口口 |⑤---|
4
口口口口 |①---|
口①①口 |--②③|
②③④口 |④---|
⑥口口⑤ |⑤-⑥-|
5
⑨①②⑨ |①②③④|
⑪④③⑪ |⑤⑥⑦⑧|
⑩⑤⑥⑩ |⑨-⑩-|
⑫⑧⑦⑫ |⑪-⑫-|
6
④③②口 |①-②③|
口①①口 |④-⑤-|
口口口⑤
口口口口

口口口口
口⑨口口
⑦⑥⑧口 |⑥-⑦-|
口口口口 |⑧-⑨-|
7
口口⑥口 |①-②③|
⑤口口① |④-⑤-|
口⑨⑦口 |⑥-⑦-|
⑧②③④ |⑧-⑨-|
8
口口口⑥ |①②③④|
④③②① |⑤-⑥-|
⑤口口口
口口口①

⑦口口口
口口口口
口⑪口口 |⑦-⑧⑨|
口⑧⑨⑩ |⑩-⑪-|
9
口②③④ |①-②③|
口⑥⑤口 |④-⑤⑥|
口口口①
口口口口

口口口口
⑦口口口
⑪⑧⑨⑩ |⑦-⑧⑨|
口口口口 |⑩-⑪-|
10
①①口口 |①-②③|
⑤⑧⑥⑦ |④-⑤-|
口口⑨口 |⑥-⑦-|
口②③④ |⑧-⑨-|
11
④③②口 |①-②③|
口口口口 |④-⑤-|
①口口⑤
口口口口

口口⑨口
口口口口
⑧口⑦口 |⑥-⑦-|
口⑥口口 |⑧-⑨-|
12
口⑥口⑦ |①②③④|
①②③④ |⑤-⑥-|
口⑪口⑤ |⑦-⑧⑨|
①⑧⑨⑩ |⑩-⑪-|
13
口②③④ |①-②③|
口⑥⑤口 |④-⑤⑥|
口口口①
口口口口

口口口口
⑦口口口
⑪⑧⑨⑩ |⑦-⑧⑨|
口口口口 |⑩-⑪-|
14
④①①② |①-②-|
口③口口 |③-④-|
口口口口
口①①口

口口口口
⑥口⑤⑧
口口⑦口 |⑤-⑥-|
口⑧口口 |⑦-⑧-|
15
②口口④ |①-②-|
⑧⑤③⑥ |③-④-|
①口⑦① |⑤-⑥-|
①口口① |⑦-⑧-|
16
④口口② |①-②-|
⑥③⑤⑧ |③-④-|
①口⑧① |⑤-⑥-|
①⑦口① |⑦-⑧-|
17
②⑤⑤④ |①-②-|
⑥②③⑥ |③-④-|
③口口④ |⑤--⑥|
①⑥⑥① |----|
18
口口口④ |①--②|
⑤③①口 |③-④-|
⑥口②口 |--⑤-|
①口口① |--⑥-|
19
④口⑤口 |①--②|
⑥①③⑥ |③-④-|
口②口口 |--⑤-|
①口口① |--⑥-|
20
口①口口 |①-②-|
口①②口 |③-④-|
口③①口
口口④口

口口⑤口
⑥⑦口口
口口⑧口 |⑤--⑥|
口口口口 |⑦-⑧-|
21
②③③② |①---|
口④①口 |②---|
⑤口④⑤ |③-④-|
①③③① |--⑤-|
22
④口口③ |①--②|
①口③⑥ |③-④-|
口②口⑦ |⑤-⑥-|
①⑤⑤① |--⑦-|
23
口⑤口④ |①--②|
⑥③①⑥ |③-④-|
口口②口 |--⑤-|
①口口① |--⑥-|
24
①口①口 |①-②-|
口②口口 |③-④-|
口①③口
口④口口

口⑤口口
口口⑦⑥
口⑧口口 |⑤--⑥|
口口口口 |⑦-⑧-|
25
②④③② |①---|
④②口④ |②---|
③口①③ |③---|
①口口① |④---|
26
口④④口 |①-②-|
口②②口 |--③-|
⑤③③⑤ |--④-|
①①①① |--⑤-|
27
口口口④ |①--②|
⑤③①口 |③-④-|
⑥口②口 |--⑤-|
①口口① |--⑥-|
28
④口⑤口 |①--②|
⑥①③⑥ |③-④-|
口②口口 |--⑤-|
①口口① |--⑥-|
29
口①口口 |①-②-|
口①②口 |③-④-|
口③①口
口口④口

口口⑤口
⑥⑦口口
口口⑧口 |⑤--⑥|
口口口口 |⑦-⑧-|
30
②③③② |①---|
口④①口 |②---|
⑤口④⑤ |③-④-|
①③③① |--⑤-|
31
④口口口 |①--②|
①口③⑤ |③-④-|
口②口⑥ |--⑤-|
①口口① |--⑥-|
32
口⑤口④ |①--②|
⑥③①⑥ |③-④-|
口口②口 |--⑤-|
①口口① |--⑥-|
33
①口①口 |①-②-|
口②口口 |③-④-|
口①③口
口④口口

口⑤口口
口口⑦⑥
口⑧口口 |⑤--⑥|
口口口口 |⑦-⑧-|
34
②口口② |①---|
口②口口 |②---|
口口①口
①口口①

口口口口
④口③④
③④④③ |③---|
口口口口 |④---|
35
③④⑤⑥ |①②--|
口②口口 |③④⑤⑥|
口口口口
①①①①

口口口口
⑪口口⑪
⑩⑨⑧⑦ |⑦⑧⑨⑩|
口口⑫口 |⑪-⑫-|
36
②口③口 |①---|
口①①口 |②-③-|
口口口口
口③口②

口⑤口④
口⑥口口
口口⑥口 |④-⑤-|
④口⑤口 |--⑥-|
37
④口口口 |①-②-|
③口①② |③-④-|
②①口③
口口口④

口⑤⑤口
口⑥⑥口
口口口口 |⑤---|
口⑤⑤口 |⑥---|
38
口口口口 |①---|
①口口① |②-③-|
口③③口
口②②口

口口口口
⑤口口⑤
口口口口 |--④-|
④口口④ |--⑤-|
39
①②③① |①--②|
⑥③②⑥ |③-④-|
④⑦⑦④ |⑤---|
⑤口口⑤ |⑥-⑦-|
40
口③口② |①---|
口①①口 |②-③-|
口口口口
②口③口

④口口口
口口⑤口
口⑤口口 |--④-|
口口口④ |--⑤-|
41
口口口④ |①-②-|
②①口③ |③-④-|
③口①②
④口口口

口⑤⑤口
口⑥⑥口
口口口口 |⑤---|
口⑤⑤口 |⑥---|
42
④口口④ |①---|
①口口① |②-③-|
⑤③③口 |--④-|
口②②⑤ |--⑤-|
43
口口口口 |①--②|
口②③口 |③-④-|
口③②①
①④④口

⑤⑤⑤⑤
口口口口
口口口口 |⑤---|
⑥口口⑥ |⑥---|
44
④口④口 |①--②|
①⑤口① |③-④-|
口①②③ |⑤-⑥-|
⑥⑥⑦⑦ |⑦---|
45
⑥①口⑥ |①-②③|
⑦④⑧② |④-⑤-|
⑥口③⑥ |⑥---|
口⑤口口 |⑦-⑧-|
46
口④口口 |①--②|
口口口⑤ |③-④-|
③②口口 |⑤--⑥|
⑦口①⑥ |--⑦-|
47
③口③口 |--①-|
口②④② |②-③-|
①口①⑤ |--④-|
④⑤⑥⑥ |⑤-⑥-|
48
口④口④ |①--②|
①口⑤① |③-④-|
③②①口 |⑤-⑥-|
⑦⑦⑥⑥ |⑦---|
49
⑥口①⑥ |①-②③|
②⑧④⑦ |④-⑤-|
⑥③口⑥ |⑥---|
口口⑤口 |⑦-⑧-|
50
口口④口 |①--②|
⑤口口口 |③-④-|
口口②③ |⑤--⑥|
⑥①⑦⑦ |--⑦-|
51
③口③口 |--①-|
口②口② |②-③-|
①口①口
口口口口

口④口⑤
⑥口⑤口
⑦⑥口口 |④-⑤-|
口口⑦口 |⑥-⑦-|
52
⑥口⑤⑤ |①--②|
口④口口 |③-④-|
⑦⑦②③ |⑤-⑥-|
①③口① |⑦---|
53
⑥③⑥⑧ |①-②③|
②口④① |④-⑤-|
⑦口④⑦ |⑥---|
⑥⑥①⑤ |⑦-⑧-|
54
⑥⑤⑤口 |①--②|
①①口口 |③-④-|
⑦④口口 |⑤--⑥|
③口②③ |--⑦-|
55
口③口③ |--①-|
口口②口 |②-③-|
口①口①
口口②口

⑤口④口
口⑤口口
口口⑥⑥ |--④-|
口④口口 |⑤-⑥-|
56
⑤⑤口⑥ |①--②|
①口④① |③-④-|
③②⑦⑦ |⑤-⑥-|
①口③① |⑦---|
57
⑧⑥③⑥ |①-②③|
①④口② |④-⑤-|
⑦④口⑦ |⑥---|
⑤①⑥⑥ |⑦-⑧-|
58
口⑤⑤⑥ |①--②|
口口①① |③-④-|
口口④⑦ |⑤--⑥|
③②口③ |--⑦-|
59
⑥⑥③④ |--①-|
⑥②⑤① |②-③-|
①口②④ |--④-|
口③⑤口 |⑤-⑥-|
60
⑧口口⑤ |①-②③|
口④口⑨ |④-⑤-|
⑦③口⑥ |⑥-⑦-|
①②口① |⑧-⑨-|
61
口口②口 |①-②③|
口口③⑨ |④-⑤-|
⑤口④⑥ |⑥-⑦-|
⑦①①⑧ |⑧-⑨-|
62
⑧①⑥① |①②③④|
⑨②口口 |⑤-⑥-|
⑩③口⑦ |⑦-⑧⑨|
口④⑤⑪ |⑩-⑪-|
63
口⑤⑪① |①-②③|
⑩⑥④① |④-⑤⑥|
⑨⑦③口 |⑦-⑧⑨|
⑧口②口 |⑩-⑪-|
64
⑤②口口 |①-②③|
口④③② |④-⑤-|
口口口⑤
口①①口

口口⑦口
⑨口口口
口口⑥口 |⑥-⑦-|
⑦⑨口⑧ |⑧-⑨-|
65
口②⑤① |①-②③|
口⑧⑦⑤ |④-⑤-|
②③④⑨ |⑥-⑦-|
⑦口⑨⑥ |⑧-⑨-|
66
①②③④ |①②③④|
口口口⑤ |⑤-⑥-|
口③⑥口
⑥口口口

口口口口
⑦口⑧口
⑪⑪口口 |⑦-⑧⑨|
口⑧⑨⑩ |⑩-⑪-|
67
④③②① |①②③④|
⑤⑥⑦⑧ |⑤⑥⑦⑧|
⑫⑪⑩⑨ |⑨⑩⑪⑫|
⑬⑭⑮⑯ |⑬⑭⑮⑯|


不確定度: 0

最終更新:2013年03月27日 20:17