男の娘メモラブル
さつき が てんこもり

BASIC

Level: 3
BPM: 160
Notes: 230

1
口口口口 |----|
口口口口 |----|
口口口口 |----|
口口口口 |----|
2
口口口口 |----|
口口口口 |----|
口口口口 |----|
口口口口 |----|
3
口口口口 |①---|
口口口口 |----|
①②口口 |②---|
口口口口 |----|
4
口口口口 |①---|
口口口口 |②---|
口口口③ |③---|
口①②口 |----|
5
口口口口 |①---|
口口②① |----|
口口口口 |②---|
口口口口 |----|
6
口口口口 |①---|
③口口口 |②---|
口②①口 |③---|
口口口口 |----|
7
口①②口 |①---|
口口口口 |----|
口口口口 |②---|
口口口口 |----|
8
口口口口 |①---|
口②①口 |----|
口口口口 |②---|
口口口口 |----|
9
口口口口 |①---|
口口口口 |②---|
①口口④ |③---|
口②③口 |④---|
10
口口口口 |----|
口口口口 |----|
口口口口 |----|
口口口口 |----|
11
口口口口 |①---|
口口口口 |----|
口口②① |②---|
口口口口 |----|
12
口口口口 |①---|
口口口口 |②---|
③口口口 |③---|
口②①口 |----|
13
口口口口 |①---|
①②口口 |----|
口口口口 |②---|
口口口口 |----|
14
口口口口 |①---|
口口口③ |②---|
口①②口 |③---|
口口口口 |----|
15
口②①口 |①---|
口口口口 |----|
口口口口 |②---|
口口口口 |----|
16
口口口口 |①---|
口①②口 |----|
口口口口 |②---|
口口口口 |----|
17
口口口口 |①---|
口口口口 |②---|
④口口① |③---|
口③②口 |④---|
18
口口口口 |①---|
口①口口 |----|
口口口口 |----|
口口口口 |----|
19
口口口口 |①---|
口②②口 |----|
口①①口 |②---|
口口口口 |----|
20
口①①口 |①---|
口口口口 |----|
口口口口 |----|
口口口口 |----|
21
①口口① |①---|
②口口② |----|
口口口口 |②---|
口口口口 |----|
22
口口口口 |①---|
口口口口 |----|
①口口① |----|
口口口口 |----|
23
口口口口 |①---|
口口口口 |----|
口②②口 |②---|
口①①口 |----|
24
口②②口 |①---|
口①①口 |----|
口口口口 |②---|
口口口口 |----|
25
①口口① |①---|
②口口② |----|
口口口口 |②---|
口口口口 |----|
26
口口口口 |①---|
口③③口 |----|
①②②① |②---|
口口口口 |③---|
27
口口口口 |①---|
口口口口 |----|
①②口口 |②---|
口口口口 |----|
28
口口口口 |①---|
口口口口 |②---|
口口口③ |③---|
口①②口 |----|
29
口口口口 |①---|
口口②① |----|
口口口口 |②---|
口口口口 |----|
30
口口口口 |①---|
③口口口 |②---|
口②①口 |③---|
口口口口 |----|
31
口①②口 |①---|
口口口口 |----|
口口口口 |②---|
口口口口 |----|
32
口口口口 |①---|
口②①口 |----|
口口口口 |②---|
口口口口 |----|
33
口口口口 |①---|
口口口口 |②---|
①口口④ |③---|
口②③口 |④---|
34
口口口口 |----|
口口口口 |----|
口口口口 |----|
口口口口 |----|
35
口口口口 |①---|
口口口口 |----|
口口②① |②---|
口口口口 |----|
36
口口口口 |①---|
口口口口 |②---|
③口口口 |③---|
口②①口 |----|
37
口口口口 |①---|
①②口口 |----|
口口口口 |②---|
口口口口 |----|
38
口口口口 |①---|
口口口③ |②---|
口①②口 |③---|
口口口口 |----|
39
口②①口 |①---|
口口口口 |----|
口口口口 |②---|
口口口口 |----|
40
口口口口 |①---|
口①②口 |----|
口口口口 |②---|
口口口口 |----|
41
口口口口 |①---|
口口口口 |②---|
④口口① |③---|
口③②口 |④---|
42
口口②口 |①---|
口①口口 |----|
口口口口 |②---|
口口口口 |----|
43
口口口口 |①---|
口②①口 |----|
口口口口 |②---|
口口口口 |----|
44
②①口口 |①---|
口口口口 |----|
口口口口 |②---|
口口口口 |----|
45
口口口口 |①---|
①②口口 |----|
口口口口 |②---|
口口口口 |----|
46
口口口口 |①---|
口口①② |----|
口口口口 |②---|
口口口口 |----|
47
口口①口 |①---|
口口②口 |----|
口口口口 |②---|
口口口口 |----|
48
口②口口 |①---|
口①口口 |----|
口口口口 |②---|
口口口口 |----|
49
口口①② |①---|
口口口口 |----|
口口口口 |②---|
口口口口 |----|
50
口口口口 |①---|
口①①口 |----|
口②②口 |②---|
口口口口 |----|
51
口口口口 |①---|
口口口口 |----|
口口口口 |②---|
口①②口 |----|
52
口口口口 |①---|
口口口口 |----|
口②①口 |②---|
口口口口 |----|
53
口口口口 |①---|
②口口口 |----|
①口口口 |②---|
口口口口 |----|
54
口①①口 |①---|
口②②口 |----|
口口口口 |②---|
口口口口 |----|
55
口口②① |①---|
口口口口 |----|
口口口口 |②---|
口口口口 |----|
56
②①口口 |①---|
口口口口 |----|
口口口口 |②---|
口口口口 |----|
57
口口口口 |①---|
①②口口 |----|
口口口口 |②---|
口口口口 |----|
58
②口口② |①---|
口口①口 |----|
口口口口 |②---|
口口口口 |----|
59
口口口口 |①---|
口口④① |②---|
口口③② |③---|
口口口口 |④---|
60
口口口口 |①---|
④①口口 |②---|
③②口口 |③---|
口口口口 |④---|
61
口①①口 |①---|
口②②口 |----|
口口口口 |②---|
口口口口 |----|
62
口口口口 |①---|
口口口口 |----|
口①①口 |②---|
口②②口 |----|
63
口口口口 |①---|
口口口口 |②---|
②③口口 |③---|
①④口口 |④---|
64
口口口口 |①---|
口口口口 |②---|
口口②③ |③---|
口口①④ |④---|
65
③口口③ |①---|
口②②口 |--②-|
口①①口 |----|
口口口口 |--③-|
66
口口口口 |----|
口口口口 |----|
口口口口 |----|
口口口口 |----|
67
口口口口 |①---|
口口④① |②---|
口口③② |③---|
口口口口 |④---|
68
口口口口 |①---|
④①口口 |②---|
③②口口 |③---|
口口口口 |④---|
69
口①①口 |①---|
口②②口 |----|
口口口口 |②---|
口口口口 |----|
70
口口口口 |①---|
口口口口 |----|
口①①口 |②---|
口②②口 |----|
71
口口口口 |①---|
口口口口 |②---|
②③口口 |③---|
①④口口 |④---|
72
口口口口 |①---|
口口口口 |②---|
口口②③ |③---|
口口①④ |④---|
73
口口口口 |①---|
口口口口 |----|
口①①口 |----|
口口口口 |----|
74
口口口口 |----|
口②②口 |----|
口①①口 |①---|
口口口口 |②---|
75
①②③④ |①---|
口口口口 |②---|
口口口口 |③---|
口口口口 |④---|
76
口口口口 |①---|
口口口① |②---|
口口口② |③---|
口口④③ |④---|
77
口口口口 |①---|
口③④口 |②---|
口②①口 |③---|
口口口口 |④---|
78
口口口口 |----|
口口口口 |----|
口口口口 |----|
口口口口 |----|
79
口③口① |①---|
④口②口 |②---|
口口口口 |③---|
口口口口 |④---|
80
口口口口 |①---|
口②②口 |----|
口①①口 |②---|
口口口口 |----|
81
①①①① |①---|
口口口口 |----|
口口口口 |----|
口口口口 |----|
82
②口口② |①---|
口口口口 |----|
口①①口 |②---|
口口口口 |----|


不確定度: 0

最終更新:2013年03月27日 20:17