男の娘メモラブル
さつき が てんこもり

ADVANCED

Level: 7
BPM: 160
Notes: 524

1
口口口口 |----|
口口口口 |----|
口口口口 |----|
口口口口 |----|
2
口口口口 |----|
口口口口 |----|
口口口口 |----|
口口口口 |----|
3
口口①口 |①---|
口口口口 |②-③-|
③②⑦口 |④-⑤-|
④⑤⑥口 |⑥-⑦-|
4
口②口口 |--①-|
①③口口 |②-③-|
口④口④ |④---|
口口口口 |----|
5
口①口口 |①---|
⑤口口④ |②-③-|
口口②③ |④---|
口口口口 |⑤---|
6
口③④⑤ |①-②-|
口②口口 |③-④-|
口①⑥⑤ |⑤---|
口口口口 |--⑥-|
7
口口口口 |①---|
口①口口 |②---|
口⑤④口 |--③-|
②口③口 |④-⑤-|
8
口①口口 |--①-|
口口口口 |--②-|
③口口② |----|
口口口口 |③---|
9
口⑥⑤④ |①---|
⑦⑦②③ |②-③-|
口口口口 |④-⑤-|
口口①口 |⑥-⑦-|
10
口口口口 |----|
口口口口 |----|
口口口口 |----|
口口口口 |----|
11
口口①口 |①-②-|
口③②口 |③-④-|
口④⑧口 |⑤-⑥-|
⑤⑥⑦口 |⑦-⑧-|
12
④⑤口口 |①-②-|
③②①口 |③-④-|
口⑤口口 |⑤---|
口口口口 |----|
13
口口①口 |①---|
④口口③ |②---|
口②口口 |③---|
口口口口 |④---|
14
口④③口 |①-②-|
口口②口 |③-④-|
口口①口
口口口口

⑤口口口
口口口口
⑤口⑥口 |⑤---|
口口口口 |--⑥-|
15
口口口口 |①---|
口①口口 |②-③-|
口③口口
②口口口

口口口口
口⑤口④
口口口口 |--④-|
口口口口 |--⑤-|
16
口口⑤口 |--①-|
③④口口 |--②-|
口②口① |--③-|
口口口口 |④-⑤-|
17
口口口① |①-②-|
口⑦⑦② |③-④-|
⑤④③口 |⑤-⑥-|
⑥⑦⑦口 |--⑦-|
18
口口口口 |----|
口口口口 |----|
口口口口 |----|
口口口口 |----|
19
①①②② |①---|
③③④④ |②---|
口口口口 |③---|
口口口口 |④---|
20
口口口口 |①---|
口口口口 |②---|
①①②② |③---|
③③④④ |④---|
21
①①③③ |①---|
②②④④ |②---|
口口口口 |③---|
口口口口 |④---|
22
口口口口 |①---|
口口口口 |②---|
①①③③ |③---|
②②④④ |④---|
23
口①②口 |①-②-|
口③④口 |③-④-|
口⑤⑥口 |⑤-⑥-|
口⑦⑧口 |⑦-⑧-|
24
①口口② |①-②-|
③口口④ |③-④-|
⑤口口⑥ |⑤-⑥-|
⑦口口⑧ |⑦-⑧-|
25
口口口口 |①---|
口口口口 |----|
口②②口 |②---|
口①①口 |----|
26
②口口③ |①---|
③①①② |----|
口口口口 |②---|
口口口口 |③---|
27
口口①口 |①-②-|
口口②⑧ |③-④-|
口③⑥⑦ |⑤-⑥-|
口④⑤口 |⑦-⑧-|
28
⑤④①口 |①-②-|
口③②口 |③-④-|
⑤口口口 |⑤---|
口口口口 |----|
29
口口口口 |①---|
③①③① |②---|
口口口口 |③---|
④②④② |④---|
30
口③④⑤ |①-②-|
口②口口 |③-④-|
口①⑥⑤ |⑤---|
口口口口 |--⑥-|
31
口口口口 |①---|
口①口口 |②-③-|
口口口口
口②③口

口⑥口口
口⑤④口
口口口口 |--④-|
口口口口 |⑤-⑥-|
32
口口口① |--①-|
口口③② |②-③-|
④口口口 |----|
口口口口 |④---|
33
口⑥⑤④ |①---|
⑦⑦②③ |②-③-|
口口口口 |④-⑤-|
口口①口 |⑥-⑦-|
34
口口口口 |----|
口口口口 |----|
口口口口 |----|
口口口口 |----|
35
口口①口 |①-②-|
口③②口 |③-④-|
口④⑧口 |⑤-⑥-|
⑤⑥⑦口 |⑦-⑧-|
36
④⑤口口 |①-②-|
③②①口 |③-④-|
口⑤口口 |⑤---|
口口口口 |----|
37
口口口① |①---|
口口口口 |②---|
⑥②口③ |③-④-|
口⑤④口 |⑤-⑥-|
38
口②③口 |①-②-|
①口口④ |③-④-|
口⑤⑥⑤ |⑤---|
口口口口 |--⑥-|
39
口口口口 |①---|
口①口口 |②-③-|
口③口口
②口口口

口口口口
口⑤口④
口口口口 |--④-|
口口口口 |--⑤-|
40
口口⑤口 |--①-|
③④口口 |--②-|
口②口① |--③-|
口口口口 |④-⑤-|
41
口口口① |①-②-|
口⑦⑦② |③-④-|
⑤④③口 |⑤-⑥-|
⑥⑦⑦口 |--⑦-|
42
口①口口 |----|
①口口② |----|
口口②口 |①---|
口口口口 |②---|
43
口口口口 |①---|
⑤口②⑤ |--②-|
①③口口 |③-④-|
口①④口 |--⑤-|
44
口口①口 |----|
口口②口 |--①-|
口口口口 |②---|
口③口口 |③---|
45
口⑦⑥口 |①---|
①⑤④口 |②-③-|
口③②口 |④-⑤-|
口口口口 |⑥-⑦-|
46
①口口① |①---|
口口口口 |----|
②口口② |②---|
口口口口 |----|
47
①①②② |①-②-|
③③④④ |③-④-|
⑤口口⑥ |--⑤-|
⑤口口⑥ |--⑥-|
48
①口口① |----|
口②②口 |①---|
③口口③ |②---|
口口口口 |③---|
49
口①②口 |①-②-|
③口口④ |③-④-|
口⑤⑥口 |⑤-⑥-|
⑦口口⑧ |⑦-⑧-|
50
口口口口 |①---|
口①①口 |----|
口口口口 |②---|
口②②口 |----|
51
⑤⑤口口 |①-②-|
①④④口 |--③-|
口②③③ |--④-|
口口口口 |--⑤-|
52
口口口① |----|
口④③② |--①-|
口⑤口口 |②-③-|
口口口口 |④-⑤-|
53
②口口口 |①---|
③口口口 |②-③-|
口口①口
口口口口

口口口口
口④⑤口
口⑦⑥口 |④-⑤-|
口口口口 |⑥-⑦-|
54
①口口① |①---|
口口口口 |----|
口口口口 |②---|
②口口② |----|
55
口口①① |①---|
②②口口 |②-③-|
⑤③③④ |--④-|
⑤口口④ |--⑤-|
56
①口口① |----|
口②②口 |①---|
③口口③ |②---|
口口口口 |③---|
57
口口口口 |①---|
口口口口 |②---|
口③④口 |③---|
口①②口 |④---|
58
口口口口 |①---|
①②③① |----|
②口口③ |②---|
口口口口 |③---|
59
①口口① |①---|
口②口口 |②---|
口口②口
口口口口

④④口口
口口⑤⑤
口口口口 |③---|
③口口③ |④-⑤-|
60
口口口口 |--①-|
④①③④ |--②-|
①口口③ |--③-|
口②②口 |--④-|
61
①口口① |①---|
④口口口 |②-③-|
⑤②②⑤ |--④-|
口③③④ |--⑤-|
62
③④口口 |--①-|
口②②① |--②-|
口②②口 |----|
①口口口 |③-④-|
63
口口①口 |①-②-|
口④③② |③-④-|
⑤⑥口口 |⑤-⑥-|
口⑦口口 |--⑦-|
64
口④③口 |①-②-|
口②⑤口 |③-④-|
口⑥①口 |⑤-⑥-|
口⑧⑦口 |⑦-⑧-|
65
①口口① |①---|
口③③口 |②-③-|
②口口②
口口口口

⑤⑤⑤⑤
口口口口
口口口口 |--④-|
口④④口 |--⑤-|
66
口口口口 |----|
口口口口 |----|
口口口口 |----|
①②口口 |①-②-|
67
口⑧⑥⑤ |①-②-|
③④⑦口 |③-④-|
口口②① |⑤-⑥-|
口口口口 |⑦-⑧-|
68
口口口口 |--①-|
⑤①④⑤ |②-③-|
①②②④ |--④-|
口③③口 |--⑤-|
69
①口口① |①---|
口口口④ |②-③-|
⑤②②⑤ |--④-|
④③③口 |--⑤-|
70
③④口口 |--①-|
①②②口 |--②-|
口②②口 |----|
口口口① |③-④-|
71
口口①口 |①---|
口⑤口口 |②-③-|
④⑤③② |--④-|
④口口口 |--⑤-|
72
口口①② |--①-|
口口①② |--②-|
④③口口 |--③-|
④③口口 |④---|
73
口①①口 |①---|
口①①口 |----|
口口口口 |----|
口口口口 |----|
74
口口口口 |----|
①①②② |----|
②②①① |①---|
口口口口 |②---|
75
①②①② |①---|
口口口口 |②---|
口口口口 |③---|
④③④③ |④---|
76
口③③口 |①-②-|
口④⑤⑥ |--③-|
②①①② |--④-|
口口口口 |⑤-⑥-|
77
口口口① |①---|
口⑤⑥口 |②-③-|
④口②⑦ |④-⑤-|
口③口口 |⑥-⑦-|
78
口口口口 |----|
口口口口 |----|
口口口口 |----|
口口口口 |----|
79
①②④⑤ |①---|
口③口口 |②-③-|
口口③口 |--④-|
⑤④②① |⑤---|
80
③④口口 |①---|
②口口① |②---|
①口口② |③---|
口口④③ |④---|
81
口口口口 |①---|
口①①口 |----|
口①①口 |----|
口口口口 |----|
82
口①口口 |①-②-|
⑤②口⑤ |③-④-|
⑤口④⑤ |⑤---|
口口③口 |----|


不確定度: 0

最終更新:2013年03月27日 20:16