男の娘メモラブル
さつき が てんこもり
EXTREME
Level: 9
BPM: 160
Notes: 841
1
口口口口 |----|
口口口口 |----|
口口口口 |----|
口口口口 |----|
2
口口口口 |----|
口口口口 |----|
口①②口 |--①②|
口③口口 |③---|
3
口①口① |①---|
口口①口 |②-③-|
口口口②
口口口③
⑦口⑦⑥
口④口⑤
④口④口 |④-⑤-|
口口口口 |⑥-⑦-|
4
口④口口 |--①-|
④②④口 |②-③-|
②口②③ |④---|
口①口① |----|
5
②⑤④① |①---|
口③口口 |②-③-|
口口③口 |④---|
①④⑤② |⑤---|
6
口口口① |①-②-|
②口④③ |③-④-|
③④口②
①口口口
⑤口⑦口
⑧⑨口口
口口口口 |⑤-⑥-|
口⑥口⑤ |⑦-⑧⑨|
7
口①口② |①---|
口口口口 |②---|
口口口②
口口口口
④⑤口口
③口口口
④口口口 |--③-|
口口口口 |④-⑤-|
8
④口③② |--①-|
口口口① |②-③-|
④口口② |----|
口口口口 |④---|
9
口口③② |①---|
口口口口 |②-③-|
口口③②
①口①口
④⑤口口
⑦口口⑥
④⑤口口 |④-⑤-|
⑥口口⑦ |⑥-⑦-|
10
口⑤口口 |--①-|
口口口④ |②-③-|
口口③② |④---|
口口①口 |⑤---|
11
①口口⑦ |①-②-|
③④⑥⑤ |③-④-|
⑤口⑧③ |⑤-⑥-|
⑦口②① |⑦-⑧-|
12
①③⑤⑥ |①-②-|
口②口口 |③-④-|
口④口口 |⑤---|
⑥⑤③① |⑥---|
13
①口口④ |①---|
②③④③ |②---|
③②①② |③---|
④口口① |④---|
14
①③口口 |①-②-|
口④口口 |③-④-|
口口②口
口口③①
口口⑤⑦
口口⑥口
口⑥⑧口 |⑤-⑥-|
⑦⑤口口 |⑦-⑧-|
15
①④口口 |①---|
口⑤③② |②-③-|
②③⑤口 |--④-|
口口④① |--⑤-|
16
口②③口 |--①-|
口④口① |--②-|
①口③口 |--③-|
口④②口 |--④-|
17
口口口口 |①-②-|
口口口口 |③-④-|
口②④口
①口口③
⑤口口⑦
口⑥⑦口
口⑦口口 |⑤-⑥-|
⑦口口口 |--⑦-|
18
③②②⑦ |①---|
④口口⑧ |②---|
⑤口口⑨ |③④⑤⑥|
⑥①①⑩ |⑦⑧⑨⑩|
19
⑤①③④ |①---|
⑤③①④ |②-③-|
④①③⑤ |----|
④②②⑤ |④-⑤-|
20
口⑤①口 |--①-|
口①④口 |--②-|
口③①口 |③-④-|
口口②口 |⑤---|
21
④口口口 |①---|
①⑤③口 |②-③-|
⑥②口② |--④-|
①口③口 |⑤-⑥-|
22
口口口口 |①-②-|
口口④口 |③-④-|
口口口③
口①②口
口口⑥⑤
口口口口
口口口口 |⑤-⑥-|
⑦⑧口口 |⑦-⑧-|
23
①③⑯⑥ |①②③④|
⑨⑤⑧⑭ |⑤⑥⑦⑧|
⑦⑪②④ |⑨⑩⑪⑫|
⑬⑮⑩⑫ |⑬⑭⑮⑯|
24
①③口⑥ |①②③④|
⑨⑤⑧口 |⑤⑥⑦⑧|
⑦⑪②④ |⑨⑩⑪-|
⑫口⑩⑫ |--⑫-|
25
①⑤①口 |①-②-|
④②口② |③-④⑤|
③⑥③口 |--⑥-|
口⑧口⑦ |⑦-⑧-|
26
⑤④⑤口 |①-②-|
④②④③ |③---|
⑤④⑤① |④---|
口口口口 |⑤---|
27
⑧⑦⑧口 |①-②-|
口③④③ |③-④-|
口⑥⑤⑥ |⑤-⑥-|
①②①口 |⑦-⑧-|
28
口④口④ |①---|
④②④① |②-③-|
②口②③ |④---|
口①口① |----|
29
①④③② |①---|
④①②③ |②---|
口口口口 |③---|
②③④① |④---|
30
①口口④ |①-②-|
口②③口 |③-④-|
口③②口
④口口①
口口⑦口
⑧⑨口⑤
⑤口口口 |⑤-⑥-|
口⑥口口 |⑦-⑧⑨|
31
口①口② |①---|
口口③口 |②-③-|
口口口②
口口口口
⑤⑥口口
④口口口
⑤口口口 |--④-|
口口口口 |⑤-⑥-|
32
④口③② |--①-|
口口口① |②-③-|
④口口② |----|
口口口口 |④---|
33
口口④③ |①--②|
口口②口 |③-④-|
口口④③
①口①口
⑤⑥口口
⑧口口⑦
⑤⑥口口 |⑤-⑥-|
⑦口口⑧ |⑦-⑧-|
34
口⑤口口 |--①-|
口口口④ |②-③-|
口口③② |④---|
口口①口 |⑤---|
35
①口口⑦ |①-②-|
③④⑥⑤ |③-④-|
⑤口⑧③ |⑤-⑥-|
⑦口②① |⑦-⑧-|
36
①③⑤⑥ |①-②-|
口②口口 |③-④-|
口④口口 |⑤---|
⑥⑤③① |⑥---|
37
①口④⑤ |①---|
②③⑤③ |②---|
③②①⑥ |③-④-|
⑤口②① |⑤-⑥-|
38
①③口口 |①-②-|
口④口口 |③-④-|
口口②口
口口③①
口口⑤⑦
口口⑥口
口⑥⑧口 |⑤-⑥-|
⑦⑤口口 |⑦-⑧-|
39
①④口口 |①---|
口⑤③② |②-③-|
②③⑤口 |--④-|
口口④① |--⑤-|
40
口②③口 |--①-|
口④口① |--②-|
①口③口 |--③-|
口④②口 |--④-|
41
口口口口 |①-②-|
口口口口 |③-④-|
口②④口
①口口③
⑤口口⑦
口⑥⑦口
口⑦口口 |⑤-⑥-|
⑦口口口 |--⑦-|
42
③②②口 |①---|
③④口口 |②---|
口口④口 |③---|
口①①口 |④---|
43
⑤口口⑤ |①---|
口④④口 |--②-|
③口口① |③-④-|
③②②① |--⑤-|
44
口口口口 |----|
②口口① |--①-|
口②①③ |②---|
③口口口 |③---|
45
⑥⑤④口 |①---|
⑦②③口 |②-③-|
①口口口 |④-⑤-|
口口口① |⑥-⑦-|
46
③口口① |①---|
口口②口 |--②-|
③②口① |③---|
口口④口 |④---|
47
⑤口①⑥ |①-②-|
口口②口 |③-④-|
口③口口 |--⑤-|
⑥④口⑤ |--⑥-|
48
口①口口 |----|
①②①② |①---|
口③②口 |②---|
③口③口 |③---|
49
口②③口 |①-②-|
①⑥⑦④ |③-④-|
⑤口口⑧ |⑤-⑥-|
口口口口 |⑦-⑧-|
50
②口口① |①---|
口②口口 |----|
口①口口 |②---|
①③口② |③---|
51
⑤④①⑤ |①-②-|
④口②① |--③-|
口③口② |--④-|
③口口口 |--⑤-|
52
口口口口 |----|
口③②口 |--①-|
④口口① |②-③-|
口⑤口口 |④-⑤-|
53
②口口④ |①---|
⑥③⑤口 |②-③-|
口⑦口口 |④-⑤-|
口口①口 |⑥-⑦-|
54
口②①口 |①---|
②口口① |----|
①口口② |②---|
口①②口 |----|
55
④口①⑤ |①---|
口口口口 |②-③-|
口②口口 |--④-|
⑤③口④ |--⑤-|
56
口①口口 |----|
①②①② |①---|
口③②口 |②---|
③口③口 |③---|
57
②①②① |①---|
口②①口 |②---|
口④③口 |③---|
④③④③ |④---|
58
口口口口 |①---|
①③②① |----|
①②③① |②---|
口口口口 |③---|
59
②③口① |①---|
③口口① |②-③-|
口口口口
①①口口
口口④口
口④口⑥
④口⑥⑤ |④---|
口⑥⑤口 |⑤-⑥-|
60
②口③① |--①-|
④②③口 |--②-|
口①④④ |--③-|
①③口② |--④-|
61
⑤①③⑤ |①---|
口④④② |②-③-|
②⑤⑤口 |--④-|
④③①④ |--⑤-|
62
③①②口 |--①-|
①④口② |--②-|
②口口① |----|
口②①口 |③-④-|
63
口口口⑥ |①-②-|
⑦口⑤口 |③-④-|
口④①口 |⑤-⑥-|
口③②口 |--⑦-|
64
①②⑥⑤ |①-②-|
口口口口 |③-④-|
口口口口 |⑤-⑥-|
⑦⑧④③ |⑦-⑧-|
65
②③口③ |①---|
口①口① |②-③-|
①③①③
口口口②
口口⑤口
④⑤④⑤
口口⑤口 |--④-|
④口④口 |--⑤-|
66
口口口口 |①-②-|
口口口口 |③-④-|
口④口③
口②口①
口口口口
⑥⑦⑤口
口口口口 |⑤-⑥-|
口⑧口口 |⑦-⑧-|
67
④口口③ |①-②-|
口口③② |③-④-|
口③②①
口口口口
口⑤⑥口
⑤⑥口⑧
⑥口⑧⑦ |⑤-⑥-|
口⑧⑦口 |⑦-⑧-|
68
③②④① |--①-|
⑤③④口 |②-③-|
口①⑤⑤ |--④-|
①④口③ |--⑤-|
69
⑤①③⑤ |①---|
口④④② |②-③-|
②⑤⑤口 |--④-|
④③①④ |--⑤-|
70
③①②口 |--①-|
①④口② |--②-|
②口口① |----|
口②①口 |③-④-|
71
口口口口 |①---|
口口口口 |②-③-|
口③①口
②口口口
口⑥口⑤
⑥口④口
口口⑥口 |④-⑤-|
口口口口 |--⑥-|
72
③口②④ |--①-|
口①②口 |--②-|
口②口① |--③-|
④②①③ |④---|
73
口①②口 |①---|
口口口① |②---|
①口口口
口②①口
口口口③
口口口④
④口口口 |③---|
③口口口 |④---|
74
③口⑤⑤ |①-②-|
①④⑤⑤ |③-④-|
⑥⑥②① |⑤---|
⑥⑥口③ |⑥---|
75
③③②② |①---|
③口口② |②---|
④④①① |③---|
④口口① |④---|
76
③口②口 |①-②-|
口②口口 |--③-|
口口①口
口①口③
口口口口
口口⑥口
口口⑤口 |--④-|
口口④口 |⑤-⑥-|
77
②②③③ |①---|
②口口③ |②---|
①①④④ |③---|
①口口④ |④---|
78
口③⑤口 |①-②-|
③②④⑤ |③-④-|
①口⑥⑦ |⑤-⑥-|
口①⑦口 |⑦---|
79
①①口③ |①---|
②②口② |②-③-|
④④口⑤ |④-⑤-|
⑥⑥⑥① |⑥---|
80
①①①口 |①---|
②②口② |②---|
③③③口 |③---|
④④口④ |④---|
81
①②③④ |①②③④|
⑤⑥⑦⑧ |⑤⑥⑦⑧|
⑨⑩⑪⑫ |⑨⑩⑪⑫|
⑬⑭⑮⑯ |⑬⑭⑮⑯|
82
⑤①⑤② |①-②-|
⑤⑤⑤口 |③-④-|
③⑤④口 |⑤---|
⑥口口⑥ |⑥---|
不確定度: 0