RIP=RELEASE
minato(流星P)

BASIC

Level: 2
BPM: 115
Notes: 177

1
口口口口 |----|
口口口口 |----|
口口口口 |----|
口口口口 |----|
2
口口口口 |----|
口口口口 |----|
口口口口 |----|
口口口口 |----|
3
口口口口 |----|
口口口口 |----|
口口口口 |----|
口口口口 |----|
4
口口口口 |----|
口口口口 |----|
口口口口 |----|
口口口口 |----|
5
口口口口 |----|
口口口口 |----|
口口口口 |----|
口口口口 |----|
6
口口口口 |①---|
①口口① |----|
口口口口 |----|
口口口口 |----|
7
口口口口 |----|
口口①口 |----|
口②口口 |①---|
口口口口 |②---|
8
口口口口 |①---|
口口口口 |----|
口口口口 |----|
①口口口 |----|
9
口口口口 |①---|
口口口口 |----|
口①口口 |②---|
口口②口 |----|
10
口口口口 |①---|
①口②① |----|
口口口口 |②---|
口口口口 |----|
11
口口口口 |①---|
口口口口 |----|
口口①口 |②---|
口口②口 |----|
12
口口口口 |①---|
口口口口 |----|
口②口口 |②---|
口①口口 |----|
13
口②口口 |①---|
口①口口 |----|
口口口口 |②---|
口口口口 |----|
14
口口①口 |①---|
口口②口 |----|
口口口口 |②---|
口口口口 |----|
15
口口口口 |①---|
口口口口 |----|
口口①口 |②---|
口口②口 |----|
16
口口口口 |①---|
口口口口 |----|
口②口口 |②---|
口①口口 |----|
17
口②口口 |①---|
口①口口 |----|
口口口口 |②---|
口口口口 |----|
18
①口口① |①---|
口口口口 |----|
口口口口 |----|
口口口口 |----|
19
口口①口 |①---|
口②③口 |②---|
口④口口 |③---|
口口口口 |④---|
20
口口口口 |①---|
口口口口 |----|
口口口口 |----|
①口口① |----|
21
口口口口 |①---|
口口④口 |②---|
口③②口 |③---|
口①口口 |④---|
22
①口口① |①---|
口口口口 |----|
口口口口 |----|
口口口口 |----|
23
口口①口 |①---|
口②③口 |②---|
口④口口 |③---|
口口口口 |④---|
24
口口口口 |①---|
口口口口 |----|
口口口口 |----|
①口口① |----|
25
口口口口 |①---|
口②②口 |----|
口①①口 |②---|
口口口口 |----|
26
①口口① |①---|
口口口口 |----|
口口口口 |----|
口口口口 |----|
27
口口①口 |①---|
口②③口 |②---|
口④口口 |③---|
口口口口 |④---|
28
口口口口 |①---|
口口口口 |----|
口口口口 |----|
①口口① |----|
29
口口口口 |①---|
口口④口 |②---|
口③②口 |③---|
口①口口 |④---|
30
①口口① |①---|
口口口口 |----|
口口口口 |----|
口口口口 |----|
31
口口①口 |①---|
口②③口 |②---|
口④口口 |③---|
口口口口 |④---|
32
口口口口 |①---|
口口口口 |----|
口②②口 |②---|
①口口① |----|
33
口口口口 |①---|
口口④口 |②---|
①③口口 |③---|
②口口口 |④---|
34
①口口① |①---|
口口口口 |----|
口口口口 |----|
口口口口 |----|
35
口口口口 |①---|
口口②① |②---|
④③口口 |③---|
口口口口 |④---|
36
口口口口 |①---|
口③口口 |②---|
口②口口 |③---|
口①口口 |----|
37
口口③口 |①---|
口口②口 |②---|
口口①口 |③---|
口口口口 |----|
38
①口口① |①---|
口口口口 |----|
口口口口 |----|
口口口口 |----|
39
口口口口 |①---|
口口②① |②---|
④③口口 |③---|
口口口口 |④---|
40
口口口口 |①---|
口③口口 |②---|
口②口口 |③---|
口①口口 |----|
41
②口口② |①---|
①口口① |--②-|
口③③口 |----|
口口口口 |③---|
42
口口口口 |①---|
口口口① |②---|
口口口② |③---|
口④③口 |④---|
43
口口口口 |①---|
口②③口 |②---|
①口口口 |③---|
口口口口 |----|
44
口④③口 |①---|
口口口② |②---|
口口口① |③---|
口口口口 |④---|
45
口口口口 |①---|
①口口口 |②---|
口②③口 |③---|
口口口口 |----|
46
口④④口 |①---|
口③③口 |②---|
口②②口 |③---|
口①①口 |④---|
47
①口口① |①---|
②口口② |②---|
③口口③ |③---|
④口口④ |④---|
48
口口口口 |①---|
口①②口 |----|
口②①口 |②---|
口口口口 |----|
49
口口口口 |①---|
①口口① |----|
口口口口 |----|
口口口口 |----|
50
①①①① |①---|
口口口口 |----|
口口口口 |----|
口口口口 |----|
51
口口口口 |①---|
口口②① |②---|
④③口口 |③---|
口口口口 |④---|
52
口口口口 |①---|
①②口口 |②---|
口口③④ |③---|
口口口口 |④---|
53
口口口口 |①---|
口口口口 |②---|
④③口口 |③---|
口口②① |④---|
54
口口口口 |①---|
口口口口 |②---|
口口③④ |③---|
①②口口 |④---|
55
口口口口 |①---|
口口②① |②---|
④③口口 |③---|
口口口口 |④---|
56
口口口口 |①---|
①②口口 |②---|
口口③④ |③---|
口口口口 |④---|
57
口口口口 |①---|
口口口口 |②---|
④③口口 |③---|
口口②① |④---|
58
口口口口 |①---|
口口口口 |②---|
口口③④ |③---|
①②口口 |④---|
59
口①①口 |①---|
口①①口 |----|
口口口口 |----|
口口口口 |----|


不確定度: 0

最終更新:2013年03月27日 20:15